Поиск

2021 Alan Broadbent & London Metropolitan Strings - Broadbent Plays Brubeck {Eden River} [24-96]

2021 Alan Broadbent & London Metropolitan Strings - Broadbent Plays Brubeck {Eden River} [24-96]
Стили:
Дата издания диска:
24 августа 2021
Носитель:
WEB
Формат:
PCM
Тип рипа:
tracks
Контейнер:
FLAC (*.flac)
Количество каналов:
2.0
Разрядность/ЧД:
24/96
Битрейт аудио:
lossless
Время звучания:
01:02:44
Наличие сканов:
только обложка

01 - The Duke 06:00
02 - One Moment Worth Years 04:58
03 - Bossa Nova USA 05:09
04 - Summer Song 05:56
05 - Blue Rondo A La Turk 04:55
06 - Strange Meadowlark 07:20
07 - In Your Own Sweet Way 07:48
08 - Weep No More 04:58
09 - When I Was Young 05:40
10 - Theme for June 05:39
11 - Home at Last 04:21

Состав:
  • Alan Broadbent – arranger, conductor & piano
  • Harvie S – bass
  • Hans Dekker – drums
  • David Juritz – Concertmaster and Solo Violin on „Strange Meadowlark“
  • London Metropolitan Strings
Лог проверки качества
foobar2000 1.4.3 / Dynamic Range Meter 1.1.1
log date: 2021-08-27 07:04:50
--------------------------------------------------------------------------------
Analyzed: Alan Broadbent / Broadbent plays Brubeck (feat. London Metropolitan Strings)
--------------------------------------------------------------------------------
DR         Peak         RMS     Duration Track
--------------------------------------------------------------------------------
DR13      -1.45 dB   -18.02 dB      6:00 01-The Duke (feat. London Metropolitan Strings)
DR12      -1.78 dB   -17.89 dB      4:58 02-One Moment Worth Years (feat. London Metropolitan Strings)
DR13      -0.87 dB   -18.29 dB      5:09 03-Bossa Nova USA (feat. London Metropolitan Strings)
DR13      -2.15 dB   -19.82 dB      5:56 04-Summer Song (feat. London Metropolitan Strings)
DR14      -2.10 dB   -20.00 dB      4:55 05-Blue Rondo A La Turk (feat. London Metropolitan Strings)
DR13      -1.76 dB   -18.77 dB      7:20 06-Strange Meadowlark (feat. London Metropolitan Strings)
DR15      -1.59 dB   -21.16 dB      7:48 07-In Your Own Sweet Way (feat. London Metropolitan Strings)
DR12      -1.15 dB   -17.72 dB      4:58 08-Weep No More (feat. London Metropolitan Strings)
DR13      -2.21 dB   -18.70 dB      5:40 09-When I Was Young (feat. London Metropolitan Strings)
DR12      -1.46 dB   -17.07 dB      5:39 10-Theme for June (feat. London Metropolitan Strings)
DR12      -1.38 dB   -19.04 dB      4:21 11-Home at Last (feat. London Metropolitan Strings)
--------------------------------------------------------------------------------
Number of tracks:  11
Official DR value: DR13
Samplerate:        96000 Hz
Channels:          2
Bits per sample:   24
Bitrate:           2733 kbps
Codec:             FLAC
================================================================================
Приватный:
Нет (DHT включён)
Размер:
1.22 Гб (1,306,475,968 байт) » файлов: 17
Участники:
53 раздают, 0 качают (53 участников всего)
Внешние участники:
2 раздают, 1 качают (3 участников всего) [ Обновить ]
22:47
467
Нет комментариев. Ваш будет первым!