Поиск

2021 Airelle Besson - Try! {Papillon Jaune ATJ250119} [CD]

2021 Airelle Besson - Try! {Papillon Jaune ATJ250119} [CD]
Место записи:
Studios La Buissonne, Pernes-les-Fontaines, France
Номер по каталогу:
ATJ250119
Носитель:
CD
Тип рипа:
tracks+.cue
Аудиокодек:
FLAC (*.flac)
Битрейт аудио:
lossless
Время звучания:
00:54:38
Наличие сканов:
web
Страна-производитель диска (релиза):
France
Релизёр (источник):
rodriguito
Лог создания рипа
Exact Audio Copy V1.1 from 23. June 2015

EAC extraction logfile from 12. February 2021, 11:09

Airelle Besson  / Try!

Used drive  : HL-DT-STDVDRAM GH22NS50   Adapter: 1  ID: 0

Read mode               : Secure
Utilize accurate stream : Yes
Defeat audio cache      : Yes
Make use of C2 pointers : No

Read offset correction                      : 667
Overread into Lead-In and Lead-Out          : No
Fill up missing offset samples with silence : Yes
Delete leading and trailing silent blocks   : No
Null samples used in CRC calculations       : Yes
Used interface                              : Native Win32 interface for Win NT & 2000
Gap handling                                : Appended to previous track

Used output format              : User Defined Encoder
Selected bitrate                : 768 kBit/s
Quality                         : High
Add ID3 tag                     : No
Command line compressor         : C:\Program Files (x86)\Exact Audio Copy\Flac\flac.exe
Additional command line options : -8 -V -T "ARTIST=%artist%" -T "TITLE=%title%" -T "ALBUM=%albumtitle%" -T "DATE=%year%" -T "TRACKNUMBER=%tracknr%" -T "TOTALTRACKS=%numtracks%" -T "DISCNUMBER=%cdnumber%" -T "TOTALDISCS=%totalcds%" -T "PERFORMER=%albuminterpret%" -T "COMPOSER=%composer%" -T "GENRE=%genre%" -T "ALBUMARTIST=%albumartist%" -T "ALBUM ARTIST=%albumartist%" -T "COMMENT=%comment%" %source%

TOC of the extracted CD

     Track |   Start  |  Length  | Start sector | End sector
    ---------------------------------------------------------
        1  |  0:00.00 |  5:35.74 |         0    |    25198
        2  |  5:35.74 |  2:33.25 |     25199    |    36698
        3  |  8:09.24 |  5:50.55 |     36699    |    63003
        4  | 14:00.04 |  3:54.31 |     63004    |    80584
        5  | 17:54.35 |  6:05.26 |     80585    |   107985
        6  | 23:59.61 |  5:04.20 |    107986    |   130805
        7  | 29:04.06 |  2:19.30 |    130806    |   141260
        8  | 31:23.36 |  5:41.69 |    141261    |   166904
        9  | 37:05.30 |  3:35.70 |    166905    |   183099
       10  | 40:41.25 |  8:01.70 |    183100    |   219244
       11  | 48:43.20 |  5:55.40 |    219245    |   245909

Track  1

     Filename C:\Users\Gamer\Music\LossClub\Airelle Besson ‎– Try!\01 The Sound of Your Voice, Pt. I.wav

     Pre-gap length  0:00:02.00

     Peak level 89.1 %
     Extraction speed 1.1 X
     Track quality 99.9 %
     Test CRC 6E550C89
     Copy CRC 6E550C89
     Track not present in AccurateRip database
     Copy OK

Track  2

     Filename C:\Users\Gamer\Music\LossClub\Airelle Besson ‎– Try!\02 The Sound of Your Voice, Pt. II.wav

     Peak level 89.1 %
     Extraction speed 1.0 X
     Track quality 99.9 %
     Test CRC 1DF51C91
     Copy CRC 1DF51C91
     Track not present in AccurateRip database
     Copy OK

Track  3

     Filename C:\Users\Gamer\Music\LossClub\Airelle Besson ‎– Try!\03 The Sound of Your Voice, Pt. III.wav

     Peak level 89.1 %
     Extraction speed 1.5 X
     Track quality 100.0 %
     Test CRC D59FA9C8
     Copy CRC D59FA9C8
     Track not present in AccurateRip database
     Copy OK

Track  4

     Filename C:\Users\Gamer\Music\LossClub\Airelle Besson ‎– Try!\04 Wild Animals.wav

     Peak level 89.1 %
     Extraction speed 1.5 X
     Track quality 100.0 %
     Test CRC 2F0CA20A
     Copy CRC 2F0CA20A
     Track not present in AccurateRip database
     Copy OK

Track  5

     Filename C:\Users\Gamer\Music\LossClub\Airelle Besson ‎– Try!\05 Angel's Dance.wav

     Peak level 89.1 %
     Extraction speed 1.7 X
     Track quality 100.0 %
     Test CRC C1F57B1C
     Copy CRC C1F57B1C
     Track not present in AccurateRip database
     Copy OK

Track  6

     Filename C:\Users\Gamer\Music\LossClub\Airelle Besson ‎– Try!\06 Try!.wav

     Peak level 89.1 %
     Extraction speed 1.8 X
     Track quality 100.0 %
     Test CRC FDF36CCC
     Copy CRC FDF36CCC
     Track not present in AccurateRip database
     Copy OK

Track  7

     Filename C:\Users\Gamer\Music\LossClub\Airelle Besson ‎– Try!\07 Patitoune.wav

     Peak level 89.1 %
     Extraction speed 1.6 X
     Track quality 100.0 %
     Test CRC 6763E7E1
     Copy CRC 6763E7E1
     Track not present in AccurateRip database
     Copy OK

Track  8

     Filename C:\Users\Gamer\Music\LossClub\Airelle Besson ‎– Try!\08 Uranus Et Pluton.wav

     Peak level 89.1 %
     Extraction speed 1.8 X
     Track quality 99.9 %
     Test CRC EE994D44
     Copy CRC EE994D44
     Track not present in AccurateRip database
     Copy OK

Track  9

     Filename C:\Users\Gamer\Music\LossClub\Airelle Besson ‎– Try!\09 Fly Away.wav

     Peak level 89.1 %
     Extraction speed 1.9 X
     Track quality 100.0 %
     Test CRC 62940F1B
     Copy CRC 62940F1B
     Track not present in AccurateRip database
     Copy OK

Track 10

     Filename C:\Users\Gamer\Music\LossClub\Airelle Besson ‎– Try!\10 Après La Neige.wav

     Peak level 89.1 %
     Extraction speed 2.2 X
     Track quality 100.0 %
     Test CRC 467A3B3A
     Copy CRC 467A3B3A
     Track not present in AccurateRip database
     Copy OK

Track 11

     Filename C:\Users\Gamer\Music\LossClub\Airelle Besson ‎– Try!\11 Lulea's Sunset.wav

     Peak level 89.1 %
     Extraction speed 2.3 X
     Track quality 100.0 %
     Test CRC 7E8B287A
     Copy CRC 7E8B287A
     Track not present in AccurateRip database
     Copy OK

None of the tracks are present in the AccurateRip database

No errors occurred

End of status report

---- CUETools DB Plugin V2.1.6

[CTDB TOCID: 9X6VWlmoVQMGEoAIVUHTJ2iSSPc-] disk not present in database
Submit result: 9X6VWlmoVQMGEoAIVUHTJ2iSSPc- has been uploaded

==== Log checksum 05FDBB2D0DB7FE71778505ACF91720AF0448D8D6F5BEF1B872906BD7ED641E8B ====
Содержание индексной карты (.CUE)
REM GENRE Jazz
REM DATE 2021
REM DISCID 970CCE0B
REM COMMENT "ExactAudioCopy v1.1"
PERFORMER "Airelle Besson"
TITLE "Try!"
FILE "01 - The Sound of Your Voice, Part I.wav" WAVE
  TRACK 01 AUDIO
    TITLE "The Sound of Your Voice, Part I"
    PERFORMER "Airelle Besson"
    INDEX 01 00:00:00
FILE "02 - The Sound of Your Voice, Part II.wav" WAVE
  TRACK 02 AUDIO
    TITLE "The Sound of Your Voice, Part II"
    PERFORMER "Airelle Besson"
    INDEX 01 00:00:00
FILE "03 - The Sound of Your Voice, Part III.wav" WAVE
  TRACK 03 AUDIO
    TITLE "The Sound of Your Voice, Part III"
    PERFORMER "Airelle Besson"
    INDEX 01 00:00:00
FILE "04 - Wild Animals.wav" WAVE
  TRACK 04 AUDIO
    TITLE "Wild Animals"
    PERFORMER "Airelle Besson"
    INDEX 01 00:00:00
FILE "05 - Angel's Dance.wav" WAVE
  TRACK 05 AUDIO
    TITLE "Angel's Dance"
    PERFORMER "Airelle Besson"
    INDEX 01 00:00:00
FILE "06 - Try!.wav" WAVE
  TRACK 06 AUDIO
    TITLE "Try!"
    PERFORMER "Airelle Besson"
    INDEX 01 00:00:00
FILE "07 - Patitoune.wav" WAVE
  TRACK 07 AUDIO
    TITLE "Patitoune"
    PERFORMER "Airelle Besson"
    INDEX 01 00:00:00
FILE "08 - Uranus et Pluton.wav" WAVE
  TRACK 08 AUDIO
    TITLE "Uranus et Pluton"
    PERFORMER "Airelle Besson"
    INDEX 01 00:00:00
FILE "09 - Fly Away.wav" WAVE
  TRACK 09 AUDIO
    TITLE "Fly Away"
    PERFORMER "Airelle Besson"
    INDEX 01 00:00:00
FILE "10 - Apres la Neige.wav" WAVE
  TRACK 10 AUDIO
    TITLE "Apres la Neige"
    PERFORMER "Airelle Besson"
    INDEX 01 00:00:00
FILE "11 - Lulea's Sunset.wav" WAVE
  TRACK 11 AUDIO
    TITLE "Lulea's Sunset"
    PERFORMER "Airelle Besson"
    INDEX 01 00:00:00
No seeders - write personal message to M0p94ok. Any questions - support@pro-jazz.com.
Нет сидеров - пишите в личку M0p94ok. Есть вопросы - support@pro-jazz.com
21:11
74
Нет комментариев. Ваш будет первым!