Поиск

2021 Aaron Wheeler, Chris Hutchings, Joe Rodwell - Abbey Road Masters: Jazz Soundtrack {Globe Productions} [24-48]

2021 Aaron Wheeler, Chris Hutchings, Joe Rodwell - Abbey Road Masters: Jazz Soundtrack {Globe Productions} [24-48]
Стили:
Носитель:
WEB
Формат:
PCM
Тип рипа:
tracks
Контейнер:
FLAC (*.flac)
Количество каналов:
2.0
Разрядность/ЧД:
24/48
Битрейт аудио:
lossless
Наличие сканов:
только обложка

1. Keep Your Cool  02:45
2. Sophisticated Gentleman  02:17
3. Stick Tricks  02:19
4. Around the Block  02:21
5. Streetlight Hustle  02:06
6. Watch The Clock  02:07
7. Your Move Next  02:53
8. Count Us In  02:13
9. Roll of the Dice  02:04

 

Состав:
  • Aaron Wheeler
  • Chris Hutchings
  • Joe lRodwel
Лог проверки качества
foobar2000 1.6.10 / Dynamic Range Meter 1.1.1
log date: 2022-11-10 18:07:59

--------------------------------------------------------------------------------
Analyzed: Aaron Wheeler / Abbey Road Masters: Jazz Soundtrack (1-4)
          Chris Hutchings / Abbey Road Masters: Jazz Soundtrack (5-8)
          Joe Rodwell / Abbey Road Masters: Jazz Soundtrack (9)
--------------------------------------------------------------------------------

DR         Peak         RMS     Duration Track
--------------------------------------------------------------------------------
DR10      -0.20 dB   -13.13 dB      2:46 01-Keep Your Cool
DR11      -0.20 dB   -12.10 dB      2:18 02-Sophisticated Gentleman
DR10      -0.20 dB   -11.54 dB      2:06 05-Streetlight Hustle
DR9       -0.20 dB   -10.72 dB      2:54 07-Your Move Next
DR12      -0.20 dB   -14.20 dB      2:20 03-Stick Tricks
DR10      -0.20 dB   -11.43 dB      2:21 04-Around the Block
DR12      -0.20 dB   -13.82 dB      2:13 08-Count Us In
DR12      -0.20 dB   -14.92 dB      2:05 09-Roll of the Dice
DR13      -0.20 dB   -16.15 dB      2:07 06-Watch The Clock
--------------------------------------------------------------------------------

Number of tracks:  9
Official DR value: DR11

Samplerate:        48000 Hz
Channels:          2
Bits per sample:   24
Bitrate:           1558 kbps
Codec:             FLAC
================================================================================
Приватный:
Нет (DHT включён)
Размер:
250.69 Мб (262,870,148 байт) » файлов: 11
Участники:
1 раздают, 0 качают (1 участников всего)
Внешние участники:
--- [ Обновить ]
19:17
238
Нет комментариев. Ваш будет первым!