Поиск

2020 Yaatri - Reach {Yaatri} [24-48]

2020 Yaatri - Reach {Yaatri} [24-48]
Стили:
Дата записи диска:
10 марта 2019
Место записи:
Nave Studios
Дата издания диска:
2 апреля 2020
Носитель:
WEB
Формат:
PCM
Тип рипа:
tracks
Контейнер:
FLAC (*.flac)
Количество каналов:
2.0
Разрядность/ЧД:
24/48
Битрейт аудио:
lossless
Время звучания:
00:33:13
Наличие сканов:
только обложка

Треклист:

1. Waiting on the Sun 05:38
2. Riddoem 05:23
3. Dwob Dwob II (Forbidden Fruit) 07:29
4. Broken 06:03
5. Pick It Up 08:40

Состав:
  • Guitar and composition: Liam Narain DeTar
  • Vocals and lyrics: Bethany Herrington
  • Keys: Felix Bertulis-Webb
  • Bass: Joe Wilkes
  • Drums and Percussion: Jona Tromp
  • Tabla: Zuheb Ahmed Khan
  • Recorded by Andy Hawkins
  • Produced by Andy Hawkins, Liam Narain DeTar and Felix Bertulis Webb.
  • With help from Dan Clifford-Smith and Danny Hilton.
  • Mastered by Dave Draper.
Лог проверки качества
foobar2000 1.6.2 / Dynamic Range Meter 1.1.1
log date: 2021-11-25 23:34:33

--------------------------------------------------------------------------------
Analyzed: Yaatri / Reach
--------------------------------------------------------------------------------

DR         Peak         RMS     Duration Track
--------------------------------------------------------------------------------
DR9       -0.10 dB   -12.03 dB      5:39 01-Waiting on the Sun
DR10      -0.10 dB   -12.09 dB      5:23 02-Riddoem
DR10      -0.10 dB   -12.07 dB      7:29 03-Dwob Dwob 2 (Forbidden Fruit)
DR11      -0.10 dB   -13.51 dB      6:03 04-Broken
DR9       -0.10 dB   -11.73 dB      8:40 05-Pick It Up
--------------------------------------------------------------------------------

Number of tracks:  5
Official DR value: DR10

Samplerate:        48000 Hz
Channels:          2
Bits per sample:   24
Bitrate:           1625 kbps
Codec:             FLAC
================================================================================
По всем вопросам пишите личное сообщение пользователю M0p94ok.
23:44
256
Нет комментариев. Ваш будет первым!