Поиск

2020 VA - Chesky's Best of the 2010s {Chesky} [24-192]

2020 VA - Chesky's Best of the 2010s {Chesky} [24-192]
Стили:
Издатель (лейбл):
Треклист:

01 - When the Saints Go Marching In (4:33)
02 - Ain't We Got Fun (4:04)
03 - Why Don’t You Do Right? (3:00)
04 - First Time (4:11)
05 - Everything (5:38)
06 - Zombie (3:09)
07 - All The Things You Are (5:22)
08 - Las Perlas De Tu Boca (4:22)
09 - Excitable Boy (2:53)
10 - Conga Descarga (5:34)
11 - September In The Rain (4:45)
12 - Full Moon in Paris (3:26)
13 - Traveler (3:57)
14 - As Time Goes By (3:16)

Доп. инфо:

Формат записи/Источник записи: [TR24][OF]
Наличие водяных знаков: Нет
Издание: Compilation
Год издания/переиздания диска: 2020
Продолжительность: 00:58:11
Наличие сканов в содержимом раздачи: Буклет PDF

Контейнер: FLAC (*.flac)
Тип рипа: tracks
Разрядность: 24/192
Формат: PCM
Количество каналов: 2.0

Источник (релизер): pic

Лог проверки качества
foobar2000 1.5.1 / Dynamic Range Meter 1.1.1
log date: 2020-01-18 09:26:26

--------------------------------------------------------------------------------
Analyzed: Various Artists / Chesky's Best of the 2010s
--------------------------------------------------------------------------------

DR         Peak         RMS     Duration Track
--------------------------------------------------------------------------------
DR17      -2.74 dB   -24.42 dB      4:33 01-When the Saints Go Marching In
DR13      -0.23 dB   -17.79 dB      4:04 02-Ain't We Got Fun
DR12      -0.30 dB   -16.76 dB      3:00 03-Why Don’t You Do Right?
DR14      -1.35 dB   -19.16 dB      4:11 04-First Time
DR14      -0.25 dB   -17.94 dB      5:38 05-Everything
DR12      -3.50 dB   -19.70 dB      3:09 06-Zombie
DR18      -3.13 dB   -24.99 dB      5:22 07-All The Things You Are
DR14      -0.97 dB   -17.65 dB      4:22 08-Las Perlas De Tu Boca
DR13      -0.22 dB   -15.10 dB      2:53 09-Excitable Boy
DR16      -0.48 dB   -19.46 dB      5:34 10-Conga Descarga
DR12      -0.01 dB   -15.75 dB      4:45 11-September In The Rain
DR14      -1.82 dB   -22.14 dB      3:26 12-Full Moon in Paris
DR13      -0.24 dB   -17.43 dB      3:57 13-Traveler
DR12      -3.48 dB   -20.73 dB      3:16 14-As Time Goes By
--------------------------------------------------------------------------------

Number of tracks:  14
Official DR value: DR14

Samplerate:        192000 Hz
Channels:          2
Bits per sample:   24
Bitrate:           5929 kbps
Codec:             FLAC
================================================================================
Приватный:
Нет (DHT включён)
Размер:
2.16 Гб (2,320,750,738 байт) » файлов: 15
Участники:
0 раздают, 1 качают (1 участников всего)
Внешние участники:
--- [ Обновить ]
Скорость:
384.97 Кб/c 63.00 байт/c
Есть вопросы - пишите личное сообщение пользователю M0p94ok.
10:42
36
Нет комментариев. Ваш будет первым!