Вы используете незарегистрированную версию компонента "Вкладки"!

Поиск

2020 Thumbscrew - The Anthony Braxton Project {Cuneiform} [24-44,1]

2020 Thumbscrew - The Anthony Braxton Project {Cuneiform} [24-44,1]
Стили:
Битрейт аудио:
lossless
Доп. инфо:

Формат записи/Источник записи: [TR24][OF]
Год издания: 2020
Издатель (лейбл): Cuneiform Records
Продолжительность: 46:54
Контейнер: FLAC (*.flac)
Тип рипа: tracks
Разрядность: 24/44,1
Количество каналов: 2.0
Источник: WEB
Наличие сканов в содержимом раздачи: Буклет PDF

Лог проверки качества
foobar2000 1.3.9 / Замер динамического диапазона (DR) 1.1.1
Дата отчёта:  2020-07-23 20:51:42

--------------------------------------------------------------------------------
Анализ:   Thumbscrew [Tomas Fujiwara / Mary Halvorson / Michael Formanek] / The Anthony Braxton Project
--------------------------------------------------------------------------------

DR         Пики         RMS           Продолжительность трека
--------------------------------------------------------------------------------
DR8       -0.36 дБ   -10.35 дБ      4:27 1-Composition No. 52
DR8       -0.08 дБ   -10.26 дБ      2:21 2-Composition No. 157
DR11      -0.49 дБ   -15.34 дБ      2:24 3-Composition No. 14_Guitar
DR13      -0.39 дБ   -17.37 дБ      7:43 4-Composition No. 68
DR10      -0.40 дБ   -12.40 дБ      6:11 5-Composition No. 274
DR8       -0.44 дБ   -11.87 дБ      3:32 6-Composition No. 14_Drums
DR7       -0.40 дБ   -10.00 дБ      3:00 7-Composition No. 61
DR9       -0.45 дБ   -13.65 дБ      7:41 8-Composition No. 35
DR8       -0.50 дБ   -13.36 дБ      3:04 9-Composition No. 14_Bass
DR12      -0.45 дБ   -17.99 дБ      2:57 10-Composition No. 150
DR10      -0.42 дБ   -11.36 дБ      3:33 11-Composition No. 79
--------------------------------------------------------------------------------

Количество треков: 11
Реальные значения DR: DR9

Частота:   44100 Гц
Каналов:   2
Разрядность:   24
Битрейт:   1262 кбит/с
Кодек:   FLAC
================================================================================
Any questions - support@pro-jazz.com. Есть вопросы - support@pro-jazz.com
16:24
288
Нет комментариев. Ваш будет первым!