Поиск

2020 The Jazz Kings - Out of Nowhere {The Jazz Kings} [24-192]

2020 The Jazz Kings - Out of Nowhere {The Jazz Kings} [24-192]
Стили:
Дата издания диска:
19 ноября 2020
Носитель:
WEB
Формат:
PCM
Тип рипа:
tracks
Контейнер:
FLAC (*.flac)
Количество каналов:
2.0
Разрядность/ЧД:
24/192
Битрейт аудио:
lossless
Время звучания:
00:55:29
Наличие сканов:
только обложка

01 - I Love Being Here With You (04:07)
02 - Black Coffee (05:30)
03 - Sing a Little Song (03:20)
04 - Night and Day (05:07)
05 - I Go Crazy (03:57)
06 - Maria Elena (03:35)
07 - Comes Love (04:57)
08 - Out of Nowhere (04:43)
09 - Peel Me a Grape (05:49)
10 - Heartbreak Hotel (05:36)
11 - Rockin' chair (04:23)
12 - Saint Louis Blues (04:21)

Лог проверки качества
foobar2000 1.4.2 / Dynamic Range Meter 1.1.1
log date: 2021-08-03 21:17:40
--------------------------------------------------------------------------------
Analyzed: The Jazz Kings / Out of Nowhere
--------------------------------------------------------------------------------
DR         Peak         RMS     Duration Track
--------------------------------------------------------------------------------
DR9       -0.41 dB   -11.12 dB      4:07 01-I Love Being Here With You
DR8       -0.47 dB   -11.02 dB      5:31 02-Black Coffee
DR9       -0.76 dB   -10.97 dB      3:20 03-Sing a Little Song
DR8       -0.54 dB   -10.41 dB      5:07 04-Night and Day
DR9        0.00 dB   -11.39 dB      3:58 05-I Go Crazy
DR10      -0.82 dB   -12.55 dB      3:36 06-Maria Elena
DR8       -0.17 dB   -11.30 dB      4:57 07-Comes Love
DR9       -0.30 dB   -10.94 dB      4:44 08-Out of Nowhere
DR9       -0.41 dB   -11.61 dB      5:49 09-Peel Me a Grape
DR9        0.00 dB   -11.39 dB      5:37 10-Heartbreak Hotel
DR9        0.00 dB   -11.08 dB      4:23 11-Rockin' chair
DR9       -0.68 dB   -11.16 dB      4:21 12-Saint Louis Blues
--------------------------------------------------------------------------------
Number of tracks:  12
Official DR value: DR9
Samplerate:        192000 Hz
Channels:          2
Bits per sample:   24
Bitrate:           4614 kbps
Codec:             FLAC
================================================================================
Приватный:
Нет (DHT включён)
Размер:
1.80 Гб (1,928,542,420 байт) » файлов: 13
Участники:
33 раздают, 0 качают (33 участников всего)
Внешние участники:
5 раздают, 1 качают (6 участников всего) [ Обновить ]
Скорость:
7.42 Мб/c 6.13 Мб/c
23:09
391
Нет комментариев. Ваш будет первым!