Вы используете незарегистрированную версию компонента "Вкладки"!

Поиск

2020 The Brecker Brothers - Live and Unreleased {Jazzline D77072} [CD]

2020 The Brecker Brothers - Live and Unreleased {Jazzline D77072} [CD]
Стили:
Дата записи диска:
2 июля 1980
Место записи:
Onkel Pos Carnegie Hall, Hamburg
Номер по каталогу:
Jazzline D77072
Носитель:
CD
Тип рипа:
tracks
Аудиокодек:
FLAC (*.flac)
Битрейт аудио:
lossless
Время звучания:
00:57:53 + 00:47:39
Наличие сканов:
буклет pdf
Страна-производитель диска (релиза):
Germany
Релизёр (источник):
moscow123458
Лог создания рипа
CD1
Exact Audio Copy V1.3 from 2. September 2016

Отчёт EAC об извлечении, выполненном 25. марта 2020, 19:17

The Brecker Brothers / Live And Unreleased [Disc One]

Дисковод: ASUS    DRW-24D5MT   Adapter: 1  ID: 0

Режим чтения                 : Достоверность
Использование точного потока : Да
Отключение кэша аудио        : Да
Использование указателей C2  : Нет

Коррекция смещения при чтении                     : 6
Способность читать области Lead-in и Lead-out     : Нет
Заполнение пропущенных сэмплов тишиной            : Да
Удаление блоков с тишиной в начале и конце        : Нет
При вычислениях CRC использовались нулевые сэмплы : Да
Интерфейс                                         : Встроенный Win32-интерфейс для Win NT/2000
Обработка зазоров                                 : Добавлено к предыдущему треку

Выходной формат          : Пользовательский кодировщик
Выбранный битрейт        : 128 kBit/s
Качество                 : Высокий
Добавление ID3-тега      : Нет
Утилита сжатия           : C:\Users\Тимур\Downloads\FLAC_1.3.2\flac-1.3.2-git-20170314-x64-icl\flac.exe
Дополнительные параметры :   -8 -V -T "ARTIST=%artist%" -T "TITLE=%title%" -T "ALBUM=%albumtitle%" -T "DATE=%year%" -T "TRACKNUMBER=%tracknr%" -T "GENRE=%genre%" -T "COMMENT=EAC FLAC -8" %source%

TOC извлечённого CD

     Трек |   Старт  | Длительность | Начальный сектор | Конечный сектор
    ---------------------------------------------------------------------
       1  |  0:00.00 |   11:35.06   |           0      |      52130
       2  | 11:35.06 |    5:48.55   |       52131      |      78285
       3  | 17:23.61 |    0:18.22   |       78286      |      79657
       4  | 17:42.08 |    9:40.03   |       79658      |     123160
       5  | 27:22.11 |   18:41.21   |      123161      |     207256
       6  | 46:03.32 |   11:49.46   |      207257      |     260477

Трек  1

     Имя файла C:\Users\Тимур\Desktop\EAC temp\01 Strap Hangin'.wav

     Длина предзазора  0:00:02.00

     Пиковый уровень 97.0 %
     Скорость извлечения 5.1 X
     Качество трека 100.0 %
     CRC теста 41A3A295
     CRC копии 41A3A295
     Трек не обнаружен в базе AccurateRip
     Копирование... OK

Трек  2

     Имя файла C:\Users\Тимур\Desktop\EAC temp\02 Tee'd Off.wav

     Пиковый уровень 96.9 %
     Скорость извлечения 5.9 X
     Качество трека 100.0 %
     CRC теста BD652929
     CRC копии BD652929
     Трек не обнаружен в базе AccurateRip
     Копирование... OK

Трек  3

     Имя файла C:\Users\Тимур\Desktop\EAC temp\03 Keine Titelinformation.wav

     Пиковый уровень 96.5 %
     Скорость извлечения 2.2 X
     Качество трека 100.0 %
     CRC теста CABD35D0
     CRC копии CABD35D0
     Трек не обнаружен в базе AccurateRip
     Копирование... OK

Трек  4

     Имя файла C:\Users\Тимур\Desktop\EAC temp\04 Sponge.wav

     Пиковый уровень 97.1 %
     Скорость извлечения 6.8 X
     Качество трека 100.0 %
     CRC теста 630A1D14
     CRC копии 630A1D14
     Трек не обнаружен в базе AccurateRip
     Копирование... OK

Трек  5

     Имя файла C:\Users\Тимур\Desktop\EAC temp\05 Funky Sea, Funky Dew.wav

     Пиковый уровень 96.9 %
     Скорость извлечения 8.2 X
     Качество трека 100.0 %
     CRC теста 0F14D0EF
     CRC копии 0F14D0EF
     Трек не обнаружен в базе AccurateRip
     Копирование... OK

Трек  6

     Имя файла C:\Users\Тимур\Desktop\EAC temp\06 I Don't Know Either.wav

     Пиковый уровень 97.1 %
     Скорость извлечения 9.1 X
     Качество трека 100.0 %
     CRC теста 0560176F
     CRC копии 0560176F
     Трек не обнаружен в базе AccurateRip
     Копирование... OK

Ни одного трека нет в базе AccurateRip

Ошибок не произошло

Конец отчёта

[CTDB TOCID: .BfMSZZfrXjUamz66z7Q1D0YXnc-] found
Submit result: .BfMSZZfrXjUamz66z7Q1D0YXnc- has been confirmed
Track | CTDB Status
  1   | (2/2) Accurately ripped
  2   | (2/2) Accurately ripped
  3   | (2/2) Accurately ripped
  4   | (2/2) Accurately ripped
  5   | (2/2) Accurately ripped
  6   | (1/2) Accurately ripped

==== Контрольная сумма отчёта FB0716CC703E80E67F04629C6778AC79EBFC0659FEDFE420DDE93C3E3790BABF ====

CD2
Exact Audio Copy V1.3 from 2. September 2016

Отчёт EAC об извлечении, выполненном 25. марта 2020, 20:40

The Brecker Brothers / Live And Unreleased [Disc Two]

Дисковод: ASUS    DRW-24D5MT   Adapter: 1  ID: 0

Режим чтения                 : Достоверность
Использование точного потока : Да
Отключение кэша аудио        : Да
Использование указателей C2  : Нет

Коррекция смещения при чтении                     : 6
Способность читать области Lead-in и Lead-out     : Нет
Заполнение пропущенных сэмплов тишиной            : Да
Удаление блоков с тишиной в начале и конце        : Нет
При вычислениях CRC использовались нулевые сэмплы : Да
Интерфейс                                         : Встроенный Win32-интерфейс для Win NT/2000
Обработка зазоров                                 : Добавлено к предыдущему треку

Выходной формат          : Пользовательский кодировщик
Выбранный битрейт        : 128 kBit/s
Качество                 : Высокий
Добавление ID3-тега      : Нет
Утилита сжатия           : C:\Users\Тимур\Downloads\FLAC_1.3.2\flac-1.3.2-git-20170314-x64-icl\flac.exe
Дополнительные параметры :   -8 -V -T "ARTIST=%artist%" -T "TITLE=%title%" -T "ALBUM=%albumtitle%" -T "DATE=%year%" -T "TRACKNUMBER=%tracknr%" -T "GENRE=%genre%" -T "COMMENT=EAC FLAC -8" %source%

TOC извлечённого CD

     Трек |   Старт  | Длительность | Начальный сектор | Конечный сектор
    ---------------------------------------------------------------------
       1  |  0:00.00 |   12:41.39   |           0      |      57113
       2  | 12:41.39 |   10:28.73   |       57114      |     104286
       3  | 23:10.37 |    8:49.41   |      104287      |     144002
       4  | 32:00.03 |    6:34.22   |      144003      |     173574
       5  | 38:34.25 |    9:05.04   |      173575      |     214453

Трек  1

     Имя файла C:\Users\Тимур\Desktop\EAC temp\01 Inside out.wav

     Длина предзазора  0:00:02.00

     Пиковый уровень 97.9 %
     Скорость извлечения 5.2 X
     Качество трека 100.0 %
     CRC теста 6325DF18
     CRC копии 6325DF18
     Трек не обнаружен в базе AccurateRip
     Копирование... OK

Трек  2

     Имя файла C:\Users\Тимур\Desktop\EAC temp\02 Baffled.wav

     Пиковый уровень 98.8 %
     Скорость извлечения 6.5 X
     Качество трека 100.0 %
     CRC теста 73BE358E
     CRC копии 73BE358E
     Трек не обнаружен в базе AccurateRip
     Копирование... OK

Трек  3

     Имя файла C:\Users\Тимур\Desktop\EAC temp\03 Some Skunk funk.wav

     Пиковый уровень 98.0 %
     Скорость извлечения 6.8 X
     Качество трека 99.9 %
     CRC теста 09870EAC
     CRC копии 09870EAC
     Трек не обнаружен в базе AccurateRip
     Копирование... OK

Трек  4

     Имя файла C:\Users\Тимур\Desktop\EAC temp\04 East River.wav

     Пиковый уровень 98.0 %
     Скорость извлечения 7.6 X
     Качество трека 100.0 %
     CRC теста 047CD39E
     CRC копии 047CD39E
     Трек не обнаружен в базе AccurateRip
     Копирование... OK

Трек  5

     Имя файла C:\Users\Тимур\Desktop\EAC temp\05 Don't get funny with my money.wav

     Пиковый уровень 98.4 %
     Скорость извлечения 8.3 X
     Качество трека 100.0 %
     CRC теста 9501150C
     CRC копии 9501150C
     Трек не обнаружен в базе AccurateRip
     Копирование... OK

Ни одного трека нет в базе AccurateRip

Ошибок не произошло

Конец отчёта

[CTDB TOCID: HlhjSN797RA7EnVzJn17TaB.3QA-] found
Submit result: HlhjSN797RA7EnVzJn17TaB.3QA- has been confirmed
Track | CTDB Status
  1   | (2/2) Accurately ripped
  2   | (2/2) Accurately ripped
  3   | (2/2) Accurately ripped
  4   | (2/2) Accurately ripped
  5   | (2/2) Accurately ripped

==== Контрольная сумма отчёта C8B31BDF13C905355FF77DC621FB6C94F1CC660B6D4A454F9413CCFD437BEBE2 ====
Содержание индексной карты (.CUE)
CD1
REM GENRE Fusion
REM DATE 2020
REM DISCID 500D9106
REM COMMENT "ExactAudioCopy v1.3"
CATALOG 4049774770722
PERFORMER "The Brecker Brothers"
TITLE "Live And Unreleased [Disc One]"
REM COMPOSER ""
FILE "01 Strap Hangin'.wav" WAVE
  TRACK 01 AUDIO
    TITLE "Strap Hangin'"
    PERFORMER "The Brecker Brothers"
    REM COMPOSER ""
    ISRC DER411900354
    FLAGS DCP
    INDEX 01 00:00:00
FILE "02 Tee'd Off.wav" WAVE
  TRACK 02 AUDIO
    TITLE "Tee'd Off"
    PERFORMER "The Brecker Brothers"
    REM COMPOSER ""
    ISRC DER411900355
    FLAGS DCP
    INDEX 01 00:00:00
FILE "03 Keine Titelinformation.wav" WAVE
  TRACK 03 AUDIO
    TITLE "Keine Titelinformation"
    PERFORMER "The Brecker Brothers"
    REM COMPOSER ""
    ISRC DER411900356
    FLAGS DCP
    INDEX 01 00:00:00
FILE "04 Sponge.wav" WAVE
  TRACK 04 AUDIO
    TITLE "Sponge"
    PERFORMER "The Brecker Brothers"
    REM COMPOSER ""
    ISRC DER411900356
    FLAGS DCP
    INDEX 01 00:00:00
FILE "05 Funky Sea, Funky Dew.wav" WAVE
  TRACK 05 AUDIO
    TITLE "Funky Sea, Funky Dew"
    PERFORMER "The Brecker Brothers"
    REM COMPOSER ""
    ISRC DER411900357
    FLAGS DCP
    INDEX 01 00:00:00
FILE "06 I Don't Know Either.wav" WAVE
  TRACK 06 AUDIO
    TITLE "I Don't Know Either"
    PERFORMER "The Brecker Brothers"
    REM COMPOSER ""
    ISRC DER411900358
    FLAGS DCP
    INDEX 01 00:00:00

CD2
REM GENRE Fusion
REM DATE 2020
REM DISCID 3B0B2B05
REM COMMENT "ExactAudioCopy v1.3"
CATALOG 4049774770722
PERFORMER "The Brecker Brothers"
TITLE "Live And Unreleased [Disc Two] "
REM COMPOSER ""
FILE "01 Inside out.wav" WAVE
  TRACK 01 AUDIO
    TITLE "Inside out"
    PERFORMER "The Brecker Brothers"
    REM COMPOSER ""
    ISRC DER411900359
    FLAGS DCP
    INDEX 01 00:00:00
FILE "02 Baffled.wav" WAVE
  TRACK 02 AUDIO
    TITLE "Baffled"
    PERFORMER "The Brecker Brothers"
    REM COMPOSER ""
    ISRC DER411900360
    FLAGS DCP
    INDEX 01 00:00:00
FILE "03 Some Skunk funk.wav" WAVE
  TRACK 03 AUDIO
    TITLE "Some Skunk funk"
    PERFORMER "The Brecker Brothers"
    REM COMPOSER ""
    ISRC DER411900361
    FLAGS DCP
    INDEX 01 00:00:00
FILE "04 East River.wav" WAVE
  TRACK 04 AUDIO
    TITLE "East River"
    PERFORMER "The Brecker Brothers"
    REM COMPOSER ""
    ISRC DER411900362
    FLAGS DCP
    INDEX 01 00:00:00
FILE "05 Don't get funny with my money.wav" WAVE
  TRACK 05 AUDIO
    TITLE "Don't get funny with my money"
    PERFORMER "The Brecker Brothers"
    REM COMPOSER ""
    ISRC DER411900363
    FLAGS DCP
    INDEX 01 00:00:00
Any questions - support@pro-jazz.com. Есть вопросы - support@pro-jazz.com
13:28
167
Нет комментариев. Ваш будет первым!