Вы используете незарегистрированную версию компонента "Вкладки"!

Поиск

2020 The Bobby Spellman Nonet - Revenge of the Cool {Sunnyside} [24-44,1]

2020 The Bobby Spellman Nonet - Revenge of the Cool {Sunnyside} [24-44,1]
Стили:
Издатель (лейбл):
Битрейт аудио:
lossless
Доп. инфо:

Формат записи/Источник записи: [TR24][OF]
Наличие водяных знаков: Нет
Год издания/переиздания диска: 2020
Продолжительность: 00:52:15
Наличие сканов в содержимом раздачи: Только обложка альбома

Контейнер: FLAC (*.flac)
Тип рипа: tracks
Разрядность: 24/44,1
Формат: PCM
Количество каналов: 2.0

Источник (релизер): Qobuz, thanks aborjini

Лог проверки качества
foobar2000 1.0.3 / Dynamic Range Meter 1.1.1
log date: 2020-06-26 22:36:10

--------------------------------------------------------------------------------
Analyzed: The Bobby Spellman Nonet / Revenge of the Cool
--------------------------------------------------------------------------------

DR         Peak         RMS     Duration Track
--------------------------------------------------------------------------------
DR12      -1.93 dB   -16.80 dB      5:14 01-Ghosts of Gainsborough Street
DR14      -0.10 dB   -19.17 dB     10:15 02-The Isles of Langerhans
DR13      -0.77 dB   -16.73 dB      4:45 03-At the Brink
DR11      -5.22 dB   -19.87 dB      4:20 04-Boundless Love
DR14      -0.15 dB   -18.23 dB      7:00 05-Uncle Chip
DR12      -0.10 dB   -15.78 dB      6:48 06-Certainty for Uncertainty
DR13      -2.34 dB   -18.34 dB      9:16 07-Genesis
DR13      -2.39 dB   -20.39 dB      4:37 08-The Human Condition
--------------------------------------------------------------------------------

Number of tracks:  8
Official DR value: DR13

Samplerate:        44100 Hz
Channels:          2
Bits per sample:   24
Bitrate:           1331 kbps
Codec:             FLAC
================================================================================
Any questions - support@pro-jazz.com. Есть вопросы - support@pro-jazz.com
19:03
252
Нет комментариев. Ваш будет первым!