Вы используете незарегистрированную версию компонента "Вкладки"!

Поиск

2020 Ted Poor - You Already Know {Blake Mills Label JV} [24-88,2]

2020 Ted Poor - You Already Know {Blake Mills Label JV} [24-88,2]
Стили:
Битрейт аудио:
lossless
Доп. инфо:

• Формат записи | Источник записи: [TR24][OF]
• Наличие водяных знаков: Нет
• Год издания релиза: 2020
• Лейбл: Blake Mills Label JV
• Продолжительность: 00:38:04
• Источник: internet
• WEB релиз: ссылка
• Контейнер: FLAC (*.flac)
• Тип рипа: tracks
• Разрядность: 24/88,2
• Формат: PCM
• Количество каналов: 2.0
• Наличие сканов: front
 

Лог проверки качества
foobar2000 1.4.2 / Dynamic Range Meter 1.1.1
log date: 2020-02-28 20:07:49

--------------------------------------------------------------------------------
Analyzed: Ted Poor / You Already Know
--------------------------------------------------------------------------------

DR         Peak         RMS     Duration Track
--------------------------------------------------------------------------------
DR10      -0.22 dB   -13.75 dB      4:51 01-Emilia
DR7       -0.22 dB    -8.54 dB      5:24 02-Only You
DR8       -0.22 dB   -11.94 dB      4:46 03-Kasia
DR6       -0.22 dB    -8.38 dB      4:38 04-To Rome
DR8       -0.22 dB   -10.56 dB      4:06 05-New Wonder
DR17      -0.22 dB   -22.06 dB      5:15 06-At Night
DR6       -0.22 dB    -9.66 dB      3:17 07-United
DR7       -0.22 dB    -7.75 dB      2:48 08-Push Pull
DR10      -0.22 dB   -13.69 dB      2:59 09-Reminder
--------------------------------------------------------------------------------

Number of tracks:  9
Official DR value: DR9

Samplerate:        88200 Hz
Channels:          2
Bits per sample:   24
Bitrate:           2336 kbps
Codec:             FLAC
================================================================================
Any questions - support@pro-jazz.com. Есть вопросы - support@pro-jazz.com
17:52
298
Нет комментариев. Ваш будет первым!