Вы используете незарегистрированную версию компонента "Вкладки"!

Поиск

2020 Shri Sriram - The Letter {Jazzland} [24-96]

2020 Shri Sriram - The Letter {Jazzland} [24-96]
Стили:
Издатель (лейбл):
Доп. инфо:

Формат записи | Источник записи: [TR24][OF]
Наличие водяных знаков: Нет
Год издания релиза: 2020
Продолжительность: 00:51:42
Источник: internet
WEB релиз: ссылка
Контейнер: FLAC (*.flac)
Тип рипа: tracks
Разрядность: 24/96
Формат: WAV (flac.ape.wv)
Количество каналов: 2.0
Наличие сканов: front

https://shri-sriram.bandcamp.com/album/the-letter

Лог проверки качества
foobar2000 1.3.9 / Замер динамического диапазона (DR) 1.1.1
Дата отчёта:  2020-02-03 07:55:59

--------------------------------------------------------------------------------
Анализ:   Shri Sriram / The Letter
--------------------------------------------------------------------------------

DR         Пики         RMS           Продолжительность трека
--------------------------------------------------------------------------------
DR11      -0.48 дБ   -16.51 дБ      4:51 01-Drum The Bass
DR11      -0.48 дБ   -13.87 дБ      3:26 02-The Letter
DR8       -0.48 дБ   -13.04 дБ      8:20 03-Boiling Point
DR8       -0.48 дБ   -11.63 дБ      5:34 04-New Day
DR7       -1.48 дБ   -11.17 дБ      3:32 05-Bass Monk
DR10      -0.48 дБ   -15.34 дБ      3:53 06-Entwined
DR9       -0.48 дБ   -13.79 дБ      6:43 07-Bow
DR10      -0.48 дБ   -12.98 дБ      8:11 08-Nasikabhushani
DR9       -0.48 дБ   -13.08 дБ      3:30 09-Uvdal
DR10      -0.48 дБ   -13.75 дБ      3:44 10-Night
--------------------------------------------------------------------------------

Количество треков: 10
Реальные значения DR: DR9

Частота:   96000 Гц
Каналов:   2
Разрядность:   24
Битрейт:   2437 кбит/с
Кодек:   FLAC
================================================================================
Any questions - support@pro-jazz.com. Есть вопросы - support@pro-jazz.com
13:45
335
Нет комментариев. Ваш будет первым!