Вы используете незарегистрированную версию компонента "Вкладки"!

Поиск

2020 Sébastien Lovato - For Virginia {Quart de Lune} [24-88,2]

2020 Sébastien Lovato - For Virginia {Quart de Lune} [24-88,2]
Стили:
Битрейт аудио:
lossless
Доп. инфо:

• Формат записи | Источник записи: [TR24][OF]
• Наличие водяных знаков: Нет
• Год издания релиза: 2020
• Лейбл: Quart de Lune
• Продолжительность: 00:55:06
• Источник: internet
• WEB релиз: ссылка
• Контейнер: FLAC (*.flac)
• Тип рипа: tracks
• Разрядность: 24/88,2
• Формат: WAV (flac.ape.wv)
• Количество каналов: 2.0
• Наличие сканов: front

Лог проверки качества
foobar2000 1.4.2 / Dynamic Range Meter 1.1.1
log date: 2020-02-23 16:06:53

--------------------------------------------------------------------------------
Analyzed: Sébastien Lovato / For Virginia
--------------------------------------------------------------------------------

DR         Peak         RMS     Duration Track
--------------------------------------------------------------------------------
DR8       -0.01 dB   -11.33 dB      6:23 01-The Hours
DR8       -0.01 dB   -11.09 dB      5:35 02-Monpazier/New-York
DR7       -0.01 dB    -9.74 dB      6:00 03-Sirènes
DR7       -0.01 dB    -9.35 dB      5:33 04-Blue Seven
DR8       -0.01 dB    -9.81 dB      2:17 05-Video Games
DR7       -0.01 dB    -9.76 dB      5:17 06-L'instant
DR12      -0.01 dB   -15.56 dB      4:07 07-Pavane
DR12      -0.09 dB   -15.54 dB      3:31 08-Blue Waves, Green Waves
DR7       -0.01 dB    -9.56 dB      5:00 09-Amazing Grace
DR7       -0.01 dB   -10.13 dB      4:35 10-Licornes
DR8       -0.01 dB   -10.63 dB      6:49 11-Là où la main de l'homme n'a jamais mis le pied
--------------------------------------------------------------------------------

Number of tracks:  11
Official DR value: DR8

Samplerate:        88200 Hz
Channels:          2
Bits per sample:   24
Bitrate:           2788 kbps
Codec:             FLAC
================================================================================
Any questions - support@pro-jazz.com. Есть вопросы - support@pro-jazz.com
21:25
278
Нет комментариев. Ваш будет первым!