Вы используете незарегистрированную версию компонента "Вкладки"!

Поиск

2020 Rachel Therrien - Vena {Bonsaï Music} [24-88,2]

2020 Rachel Therrien - Vena {Bonsaï Music} [24-88,2]
Стили:
Битрейт аудио:
lossless
Доп. инфо:

Формат записи/Источник записи: [TR24][OF]
Наличие водяных знаков: Нет
Год издания: 2020
Издатель (лейбл): Bonsaï Music
Продолжительность: 00:54:31
Наличие сканов в содержимом раздачи: Буклет PDF
Контейнер: FLAC (*.flac)
Тип рипа: tracks
Разрядность: 24/88.2
Формат: PCM
Количество каналов: 2.0
Источник (релизер): highresaudio.com

Лог проверки качества
foobar2000 1.4.8 / Dynamic Range Meter 1.1.1
log date: 2020-04-24 16:48:13

--------------------------------------------------------------------------------
Analyzed: Rachel Therrien / Vena
--------------------------------------------------------------------------------

DR         Peak         RMS     Duration Track
--------------------------------------------------------------------------------
DR13      -1.80 dB   -18.78 dB      0:52 01-Folks Jam
DR8       -1.73 dB   -13.27 dB      4:32 02-V for Vena
DR8       -1.84 dB   -12.92 dB      4:28 03-Parity
DR10      -1.73 dB   -14.44 dB      4:39 04-Pigalle
DR10      -1.73 dB   -15.76 dB      4:13 05-75 Pages of Happiness
DR8       -1.73 dB   -12.33 dB      5:36 06-Assata
DR8       -1.73 dB   -12.31 dB      5:20 07-Bilka's Story
DR7       -1.73 dB   -12.82 dB      2:44 08-Emilio
DR12      -1.73 dB   -18.83 dB      0:57 09-Women
DR11      -1.73 dB   -15.51 dB      1:59 10-Synchronicity
DR9       -1.79 dB   -14.41 dB      5:03 11-This Isn't Love
DR9       -1.73 dB   -12.95 dB      3:57 12-Just Playing
DR12      -1.73 dB   -18.89 dB      3:22 13-Bleu tortue
DR8       -1.90 dB   -12.79 dB      4:46 14-Migration
DR10      -1.73 dB   -15.24 dB      2:03 15-Folks Tune
--------------------------------------------------------------------------------

Number of tracks:  15
Official DR value: DR10
Samplerate:        88200 Hz
Channels:          2
Bits per sample:   24
Bitrate:           2494 kbps
Codec:             FLAC
================================================================================
Any questions - support@pro-jazz.com. Есть вопросы - support@pro-jazz.com
08:10
249
Нет комментариев. Ваш будет первым!