Поиск

2020 Pietro Lazazzara - My Art of Gypsy Jazz {Stradivarius} [24-48]

2020 Pietro Lazazzara - My Art of Gypsy Jazz {Stradivarius} [24-48]
Дата издания диска:
17 июля 2020
Битрейт аудио:
lossless

Треклист:

01. Rumba from Laerte 02:45
02. Retrò 03:26
03. In My Tango 03:47
04. Waltz for Paola 02:58
05. Douce ambiance 03:04
06. Happy Saudade 03:05
07. Echi d'infanzia 01:28
08. Wind of Andalusia 03:19
09. Joseph Joseph 03:03
10. Relax 03:30
11. Tarantola Gypsy 03:07
12. Passion d'amour 03:44
13. Bistro Fada 03:04
14. Retrò (Swinging Dance Version) 03:01

Состав:
  • Pietro Lazazzara — lead guitar, rhythm guitar and arrangements
  • Antonio Solazzo — bass
  • Emanuele Maggiore — flugelhorn in the piece “Relax"
Доп. инфо:

Формат записи/Источник записи: [TR24][OF]
Наличие водяных знаков: Нет
Год издания/переиздания диска: 2020
Издатель (лейбл): Stradivarius
Продолжительность: 43:55
Наличие сканов в содержимом раздачи: Буклет PDF

Контейнер: FLAC (*.flac)
Тип рипа: tracks
Разрядность: 24/48
Формат: LPCM
Количество каналов: 2.0

Источник (релизер): https://www.highresaudio.com/en/album/view/c7uq7i/pietro-lazazzara-my-art-of-gypsy-jazz

Лог проверки качества
foobar2000 1.5.2 / Dynamic Range Meter 1.1.1
log date: 2020-07-18 12:06:31

--------------------------------------------------------------------------------
Analyzed: Pietro Lazazzara / My Art of Gypsy Jazz
--------------------------------------------------------------------------------

DR         Peak         RMS     Duration Track
--------------------------------------------------------------------------------
DR12      -1.11 dB   -15.89 dB      2:48 01-Rumba from Laerte
DR12      -0.41 dB   -15.12 dB      3:27 02-Retrò
DR13      -0.20 dB   -15.67 dB      3:48 03-In My Tango
DR12      -1.69 dB   -16.03 dB      3:00 04-Waltz for Paola
DR13      -1.02 dB   -16.42 dB      3:07 05-Douce ambiance
DR12      -1.99 dB   -16.41 dB      3:06 06-Happy Saudade
DR10      -2.01 dB   -15.23 dB      1:29 07-Echi d'infanzia
DR13      -1.42 dB   -15.90 dB      3:21 08-Wind of Andalusia
DR13      -0.31 dB   -15.93 dB      3:08 09-Joseph Joseph
DR12      -1.99 dB   -16.18 dB      3:33 10-Relax
DR12      -0.20 dB   -14.14 dB      3:12 11-Tarantola Gypsy
DR12      -0.20 dB   -15.19 dB      3:46 12-Passion d'amour
DR12      -1.63 dB   -16.28 dB      3:07 13-Bistro Fada
DR13      -0.85 dB   -16.15 dB      3:03 14-Retrò (Swinging Dance Version)
--------------------------------------------------------------------------------

Number of tracks:  14
Official DR value: DR12

Samplerate:        48000 Hz
Channels:          2
Bits per sample:   24
Bitrate:           1473 kbps
Codec:             FLAC
================================================================================
По всем вопросам пишите личное сообщение пользователю M0p94ok.
09:34
520
Нет комментариев. Ваш будет первым!