Поиск

2020 Philippe Gleizes, Jean-Philippe Morel - Band of Dogs 2 {Le Triton} [24-48]

2020 Philippe Gleizes, Jean-Philippe Morel - Band of Dogs 2 {Le Triton} [24-48]
Место записи:
Le Triton, Les Lilas, France
Дата издания диска:
28 февраля 2020
Номер по каталогу:
TRI-19549
Носитель:
WEB
Формат:
PCM
Тип рипа:
tracks
Контейнер:
FLAC (*.flac)
Количество каналов:
2.0
Разрядность/ЧД:
24/48
Битрейт аудио:
lossless
Наличие сканов:
только обложка

01. Time of Ashes and Tears feat. Vincent Peirani, Hugue Mayot, Aymeric Avice  03:45
02. The Pig & Monkey Tree feat. Vincent Peirani, Hugue Mayot, Aymeric Avice, Thomas De Pourquery, Bruno Ruder, Emile Parisien  06:59
03. God of Disaster feat. Théo Ceccaldi  04:53
04. Yama-Uba feat. Elise Caron  04:16
05. Cosmic Dogs feat. Andy Emler  04:40
06. Lost Dog in Space feat. Théo Ceccaldi  01:39
07. Proctor's Ledge feat. Elise Caron  05:01
08. Dogzilla feat. Théo Ceccaldi  07:00
09. Abstract Dogs feat. Antonin Rayon  03:07
10. Dog Eat Dog feat. Vincent Peirani, Hugue Mayot, Aymeric Avice, Thomas De Pourquery, Bruno Ruder, Emile Parisien  03:35
11. Ho My Dog ! feat. Gilles Coronado  04:13
12. Got Damn Dogs feat. Antonin Rayon  04:47
13. Völva feat. Elise Caron  03:11
14. God Is a Faceless Dog feat. Théo Ceccaldi  04:47
15. The End of Gods feat. Vincent Peirani, Hugue Mayot, Aymeric Avice, Thomas De Pourquery, Bruno Ruder, Emile Parisien  04:43
16. Once Upon a Time in Band of Dogs  02:14

Состав:
  • Accordion – Vincent Peirani (треков: 1,2 ,10, 15)
  • Alto Saxophone – Thomas De Pourquery (треков: 2, 10, 15)
  • Drums, Composed By – Philippe Gleizes
  • Electric Piano [Fender Rhodes] – Bruno Ruder (треков: 2, 10, 15)
  • Guitar – Gilles Coronado (треков: 11)
  • Keyboards – Andy Emler (треков: 5), Antonin Rayon (треков: 9, 12)
  • Mastered By – Philippe Teissier Du Cros
  • Mixed By, Bass, Effects [FX], Composed By – Jean-Philippe Morel
  • Recorded By – Emilien Woisard, Stéphane Seddoh
  • Soprano Saxophone – Emile Parisien (треков: 2 ,10, 15)
  • Tenor Saxophone – Hugues Mayot (треков: 1,2 ,10, 15)
  • Trumpet, Bugle – Aymeric Avice (треков: 1,2 ,10, 15)
  • Violin – Théo Ceccaldi (треков: 3, 6, 8, 14)
  • Vocals [Chant] – Elise Caron (треков: 4, 7, 13)
Лог проверки качества
foobar2000 1.6.2 / Dynamic Range Meter 1.1.1
log date: 2021-10-21 11:07:59

--------------------------------------------------------------------------------
Analyzed: Philippe Gleizes, Jean-Philippe Morel, Andy Emler / Band of Dogs 2 (1)
          Philippe Gleizes, Jean-Philippe Morel, Antonin Rayon / Band of Dogs 2 (2-3)
          Philippe Gleizes, Jean-Philippe Morel, Elise Caron / Band of Dogs 2 (4-6)
          Philippe Gleizes, Jean-Philippe Morel, Gilles Coronado / Band of Dogs 2 (7)
          Philippe Gleizes, Jean-Philippe Morel, Theo Ceccaldi / Band of Dogs 2 (8-11)
          Philippe Gleizes, Jean-Philippe Morel, Vincent Peirani, Hugue Mayot, Aymeric Avice, Thomas de pourquery, Bruno Ruder, Emile Parisien / Band of Dogs 2 (12-14)
          Philippe Gleizes, Jean-Philippe Morel, Vincent Peirani, Hugue Mayot, Aymeric Avice / Band of Dogs 2 (15)
          Philippe Gleizes, Jean-Philippe Morel / Band of Dogs 2 (16)
--------------------------------------------------------------------------------

DR         Peak         RMS     Duration Track
--------------------------------------------------------------------------------
DR8        0.00 dB    -8.99 dB      4:40 05-Cosmic Dogs
DR6       -0.10 dB    -7.14 dB      3:07 09-Abstract Dogs
DR6       -0.12 dB    -7.48 dB      4:48 12-Got Damn Dogs
DR7       -0.10 dB    -8.92 dB      4:16 04-Yama-Uba
DR8       -0.12 dB   -11.55 dB      5:01 07-Proctor's Ledge
DR7       -0.34 dB   -10.64 dB      3:12 13-Völva
DR8       -0.12 dB    -9.31 dB      4:13 11-Ho My Dog !
DR8       -0.11 dB    -8.76 dB      4:54 03-God of Disaster
DR11      -2.18 dB   -17.75 dB      1:39 06-Lost Dog in Space
DR7       -0.12 dB    -7.90 dB      7:00 08-Dogzilla
DR9       -0.11 dB   -13.76 dB      4:48 14-God Is a Faceless Dog
DR7       -0.10 dB    -8.65 dB      6:59 02-The Pig & Monkey Tree
DR8       -0.10 dB    -9.38 dB      3:36 10-Dog Eat Dog
DR7       -0.10 dB    -7.97 dB      4:44 15-The End of Gods
DR11      -2.16 dB   -19.74 dB      3:45 01-Time of Ashes and Tears
DR13      -0.99 dB   -17.21 dB      2:14 16-Once Upon a Time in Band of Dogs
--------------------------------------------------------------------------------

Number of tracks:  16
Official DR value: DR8

Samplerate:        48000 Hz
Channels:          2
Bits per sample:   24
Bitrate:           1322 kbps
Codec:             FLAC
================================================================================
Приватный:
Да (DHT отключён)
Размер:
872.19 Мб (914,553,388 байт) » файлов: 18
Участники:
0 раздают, 0 качают (0 участников всего)
Внешние участники:
--- [ Обновить ]
11:19
462
Нет комментариев. Ваш будет первым!