Вы используете незарегистрированную версию компонента "Вкладки"!

Поиск

2020 Paul Kuhn, Eugen Cicero - Bernhard Theater Zürich 05.10.1992 (Live) {In+Out} [24-44.1]

2020 Paul Kuhn, Eugen Cicero - Bernhard Theater Zürich 05.10.1992 (Live) {In+Out} [24-44.1]
Стили:
Дата записи диска:
5 октября 1992
Дата издания диска:
24 апреля 2020
Издатель (лейбл):
Носитель:
WEB
Формат:
PCM
Тип рипа:
tracks
Контейнер:
FLAC (*.flac)
Количество каналов:
2.0
Разрядность/ЧД:
24/44,1
Битрейт аудио:
lossless
Время звучания:
01:16:15
Наличие сканов:
только обложка
Лог проверки качества
foobar2000 1.6.2 / Dynamic Range Meter 1.1.1
log date: 2021-10-27 13:20:23

--------------------------------------------------------------------------------
Analyzed: Paul Kuhn / Bernhard Theater Zürich 05.10.1992 (Live)
--------------------------------------------------------------------------------

DR         Peak         RMS     Duration Track
--------------------------------------------------------------------------------
DR12      -1.06 dB   -17.65 dB      6:12 01-The Preacher  (Live)
DR15      -1.06 dB   -20.56 dB      6:25 02-Long Ago and Far Away  (Live)
DR14      -1.05 dB   -19.54 dB      6:51 03-Prelude E Minor  (Live)
DR16      -2.41 dB   -25.84 dB      5:28 04-My Funny Valentine  (Live)
DR12      -1.05 dB   -16.47 dB      6:01 05-How High the Moon  (Live)
DR17      -5.44 dB   -27.77 dB      6:35 06-Guess I'll Hang My Tears out to Dry  (Live)
DR15      -1.06 dB   -19.66 dB      6:54 07-Cute  (Live)
DR15      -1.06 dB   -22.23 dB      4:26 08-The Days of Wine and Roses  (Live)
DR15      -1.06 dB   -20.54 dB      6:53 09-Misty / The Lady Is a Tramp  (Live)
DR15      -1.06 dB   -21.47 dB      5:27 10-Bluesette  (Live)
DR13      -1.05 dB   -18.91 dB      6:34 11-Sunny  (Live)
DR11      -1.05 dB   -15.92 dB      5:25 12-Battle Hymn of the Republic (Glory, Glory Hallelujah)  (Live)
DR15      -6.25 dB   -29.47 dB      3:12 13-Bess, You Is My Woman Now  (Live)
--------------------------------------------------------------------------------

Number of tracks:  13
Official DR value: DR14

Samplerate:        44100 Hz
Channels:          2
Bits per sample:   24
Bitrate:           1239 kbps
Codec:             FLAC
================================================================================
Any questions - support@pro-jazz.com. Есть вопросы - support@pro-jazz.com
13:28
65
Нет комментариев. Ваш будет первым!