Вы используете незарегистрированную версию компонента "Вкладки"!

Поиск

2020 Pasquale Grasso - Solo Masterpieces {Okeh_Sony Masterworks} [24-96]

2020 Pasquale Grasso - Solo Masterpieces {Okeh_Sony Masterworks} [24-96]
Издатель (лейбл):
Носитель:
WEB
Формат:
PCM
Тип рипа:
tracks+.cue
Контейнер:
FLAC (*.flac)
Количество каналов:
2.0
Разрядность/ЧД:
24/96
Битрейт аудио:
lossless
Время звучания:
00:49:28
Наличие сканов:
web
Релизёр (источник):
M0p94ok
Лог проверки качества
foobar2000 1.4.3 / Dynamic Range Meter 1.1.1
log date: 2020-03-30 10:30:33

--------------------------------------------------------------------------------
Analyzed: Pasquale Grasso / Solo Masterpieces
--------------------------------------------------------------------------------

DR         Peak         RMS     Duration Track
--------------------------------------------------------------------------------
DR10      -1.12 dB   -12.82 dB      5:06 01-All the Things You Are
DR11      -1.12 dB   -14.56 dB      4:23 02-Over the Rainbow
DR10      -1.12 dB   -13.77 dB      5:33 03-Just One of Those Things
DR10      -1.12 dB   -14.02 dB      5:08 04-'Round Midnight
DR11      -1.12 dB   -13.85 dB      2:58 05-Hallucinations
DR11      -1.12 dB   -13.84 dB      3:51 06-Sophisticated Lady
DR10      -1.12 dB   -13.02 dB      4:45 07-Tea for Two
DR9       -1.12 dB   -12.06 dB      3:27 08-Bouncing with Bud
DR11      -1.12 dB   -14.52 dB      4:24 09-These Foolish Things
DR11      -1.12 dB   -13.70 dB      2:47 10-Epistrophy
DR10      -1.12 dB   -12.96 dB      3:09 11-Parker's Mood
DR11      -1.12 dB   -14.39 dB      4:07 12-Body and Soul
--------------------------------------------------------------------------------

Number of tracks:  12
Official DR value: DR10

Samplerate:        96000 Hz
Channels:          2
Bits per sample:   24
Bitrate:           2234 kbps
Codec:             FLAC
================================================================================
Any questions - support@pro-jazz.com. Есть вопросы - support@pro-jazz.com
10:57
370
Нет комментариев. Ваш будет первым!