Вы используете незарегистрированную версию компонента "Вкладки"!

Поиск

2020 Ole Amund Gjersvik Trio - Live at Swing'n'Sweet {Acoustic} [24-44,1]

2020 Ole Amund Gjersvik Trio - Live at Swing'n'Sweet {Acoustic} [24-44,1]
Стили:
Битрейт аудио:
lossless
Доп. инфо:

• Формат записи | Источник записи: [TR24][OF]
• Наличие водяных знаков: Нет
• Год издания релиза: 2020
• Лейбл: Acoustic Records
• Продолжительность: 01:05:07
• Источник: internet
• WEB релиз: ссылка
• Контейнер: FLAC (*.flac)
• Тип рипа: tracks
• Разрядность: 24/44,1
• Формат: PCM
• Количество каналов: 2.0
• Наличие сканов: front

Лог проверки качества
foobar2000 1.4.2 / Замер динамического диапазона (DR) 1.1.1
Дата отчёта:  2020-03-13 10:07:01

--------------------------------------------------------------------------------
Анализ:   Ole Amund Gjersvik Trio / Live at Swing'n'Sweet
--------------------------------------------------------------------------------

DR         Пики         RMS           Продолжительность трека
--------------------------------------------------------------------------------
DR16      -0.34 дБ   -20.56 дБ      9:28 01-If I Were A Bell (Live)
DR15      -0.24 дБ   -20.40 дБ      6:58 02-Summertime (Live)
DR12      -3.47 дБ   -19.50 дБ      7:35 03-Girl From Ipanema (Live)
DR17       0.00 дБ   -22.21 дБ      6:43 04-Bluesette (Live)
DR14      -0.02 дБ   -19.73 дБ     10:18 05-Alone Together (Live)
DR17       0.00 дБ   -22.76 дБ      9:38 06-Solar (Live)
DR11      -0.28 дБ   -17.12 дБ      6:57 07-Alice In Wonderland (Live)
DR13      -0.49 дБ   -19.62 дБ      7:31 08-Stella By Starlight (Live)
--------------------------------------------------------------------------------

Количество треков: 8
Реальные значения DR: DR14

Частота:   44100 Гц
Каналов:   2
Разрядность:   24
Битрейт:   1148 кбит/с
Кодек:   FLAC
================================================================================
Any questions - support@pro-jazz.com. Есть вопросы - support@pro-jazz.com
21:09
264
Нет комментариев. Ваш будет первым!