Вы используете незарегистрированную версию компонента "Вкладки"!

Поиск

2020 Monique Klemann - Lovers in Motion {Zip} [24-48]

2020 Monique Klemann - Lovers in Motion {Zip} [24-48]
Стили:
Битрейт аудио:
lossless
Доп. инфо:

• Формат записи | Источник записи: [TR24][OF]
• Наличие водяных знаков: Нет
• Год издания релиза: 2020
• Лейбл: Zip Records
• Продолжительность: 00:33:32
• Источник: internet
• WEB релиз: ссылка
• Контейнер: FLAC (*.flac)
• Тип рипа: tracks
• Разрядность: 24/48
• Формат: PCM
• Количество каналов: 2.0
• Наличие сканов: front

Лог проверки качества
foobar2000 1.4.2 / Замер динамического диапазона (DR) 1.1.1
Дата отчёта:  2020-03-24 09:55:31

--------------------------------------------------------------------------------
Анализ:   Monique Klemann / Lovers in Motion
--------------------------------------------------------------------------------

DR         Пики         RMS           Продолжительность трека
--------------------------------------------------------------------------------
DR9       -0.14 дБ   -10.57 дБ      3:33 01-Sleeping Pill
DR8       -0.30 дБ    -9.94 дБ      3:38 02-Running Up a River
DR7       -0.25 дБ    -9.42 дБ      3:34 03-Summerdays
DR8       -0.19 дБ    -8.79 дБ      3:06 04-Spooky
DR8       -0.23 дБ    -9.18 дБ      3:39 05-Miracle Man
DR8       -0.29 дБ    -9.07 дБ      3:46 06-Lovers in Motion
DR9       -0.29 дБ   -11.34 дБ      4:16 07-In Love
DR7       -0.27 дБ    -9.40 дБ      3:14 08-Watcha Gonna Do
DR8       -0.26 дБ    -9.89 дБ      4:48 09-I'm Not In Love
--------------------------------------------------------------------------------

Количество треков: 9
Реальные значения DR: DR8

Частота:   48000 Гц
Каналов:   2
Разрядность:   24
Битрейт:   1693 кбит/с
Кодек:   FLAC
================================================================================
Any questions - support@pro-jazz.com. Есть вопросы - support@pro-jazz.com
07:17
1333
Нет комментариев. Ваш будет первым!