Поиск

2020 Massimo Farao Trio - This Can’t Be Love {Venus} [DSD64 ISO]

2020 Massimo Farao Trio - This Can’t Be Love {Venus} [DSD64 ISO]
Стили:
Дата записи диска:
21 июля - 22 июля 2019
Место записи:
Riverside Studios, Torino, Italy
Дата издания диска:
22 января 2020
Издатель (лейбл):
Номер по каталогу:
VHGD-353
Носитель:
SACD
Формат:
DSD
Тип рипа:
image
Контейнер:
ISO (*.iso)
Количество каналов:
2.0
Разрядность/ЧД:
64 (2,8 MHz/1 Bit)
Битрейт аудио:
lossless
Время звучания:
01:02:47
Наличие сканов:
только обложка

Треклист:

01. The Gentle Rain  06:03
02. The Things We Did Last Summer  06:44
03. Teach Me Tonight  05:49
04. Do Nothing Till You Hear from Me  06:26
05. This Can't Be Love  06:00
06. I Remember Clifford  07:07
07. Spring Will Be a Little Late This Year  07:39
08. One for Amos  04:04
09. Peace  07:52
10. Three Little Words  04:49

Состав:
  • Massimo Faraò — piano
  • Paolo Benedettini — bass
  • Nicola Barbon — bass
  • Jimmy Cobb — drums
Лог проверки качества
foobar2000 1.6.7 / Dynamic Range Meter 1.1.1
log date: 2021-11-17 12:54:49
--------------------------------------------------------------------------------
Analyzed: MASSIMO FARAÒ TRIO ~ FEATURING JIMMY COBB / This Can't Be Love
--------------------------------------------------------------------------------
DR         Peak         RMS     Duration Track
--------------------------------------------------------------------------------
DR10      -4.30 dB   -16.16 dB      6:04 01-The Gentle Rain
DR10      -4.47 dB   -16.61 dB      6:46 02-The Things We Did Last Summer
DR9       -4.33 dB   -15.98 dB      5:51 03-Teach Me Tonight
DR10      -4.03 dB   -16.96 dB      6:27 04-Do Nothing Till You Hear From Me
DR9       -4.22 dB   -14.88 dB      6:01 05-This Can't Be Love
DR12      -4.01 dB   -18.50 dB      7:08 06-I Remember Clifford
DR10      -4.17 dB   -15.85 dB      7:41 07-Spring Will Be A Littele Late This Year
DR10      -4.46 dB   -17.64 dB      4:05 08-One For Amos
DR13      -4.19 dB   -19.94 dB      7:53 09-Peace
DR9       -4.14 dB   -14.70 dB      4:51 10-Three Little Words
--------------------------------------------------------------------------------
Number of tracks:  10
Official DR value: DR10
Samplerate:        2822400 Hz / PCM Samplerate: 88200 Hz
Channels:          2
Bits per sample:   1
Bitrate:           5645 kbps
Codec:             DSD64
================================================================================
По всем вопросам пишите личное сообщение пользователю M0p94ok.
22:26
131
Нет комментариев. Ваш будет первым!