Поиск

2020 Massimo Farao - Playing With The Jazz Masters, Vol. 1 {Racing Jazz} [24-44.1]

2020 Massimo Farao - Playing With The Jazz Masters, Vol. 1 {Racing Jazz} [24-44.1]
Стили:
Дата издания диска:
18 октября 2020
Носитель:
WEB
Формат:
PCM
Тип рипа:
tracks
Контейнер:
FLAC (*.flac)
Количество каналов:
2.0
Разрядность/ЧД:
24/44,1
Битрейт аудио:
lossless
Время звучания:
03:58:55
Наличие сканов:
только обложка

Треклист:

01 - Winetone (Live at Vapore Jazz Club) 07:15
02 - Un bacio a mezzanotte (Live at Vapore Jazz Club) 08:32
03 - Samba per Marta (Live at Vapore Jazz Club) 06:36
04 - I Love You (Live at Vapore Jazz Club) 06:18
05 - Easy Living (Live at Vapore Jazz Club) 09:07
06 - This I Dig of You (Live at Vapore Jazz Club) 05:22
07 - Alone Together (Live at Caffe' Defilla) 11:54
08 - Have You Met Miss Jones? (Live at Caffe' Defilla) 08:23
09 - N.O. Blues (Live at Caffe' Defilla) 06:23
10 - If I Should Lose You (Live at Caffe' Defilla) 12:06
11 - Easy Living (Live at Caffe' Defilla) 07:19
12 - Will You Still Be Mine? (Live at Caffe' Defilla) 08:05
13 - A Tommaso (Live at Alpheus Jazz Club) 07:59
14 - Bag's Groove (Live at Alpheus Jazz Club) 05:05
15 - I Love You (Live at Alpheus Jazz Club) 08:26
16 - There Is No Greater Love (Live at Alpheus Jazz Club) 07:48
17 - What Is This Thing Called Love? (Live at Alpheus Jazz Club) 07:02
18 - This I Dig of You (Live at Alpheus Jazz Club) 07:25
19 - Will You Still Be Mine? (Live at Alpheus Jazz Club) 08:04
20 - Have You Met Miss Jones? (Live in Alghero) 05:18
21 - My Baby Love (Live in Alghero) 08:04
22 - Will You Still Be Mine? (Live in Alghero) 09:02
23 - N.O. Blues (Live in Alghero) 06:46
24 - Broadway (Live in Alghero) 06:30
25 - Easy Living (Live in Alghero) 07:08
26 - This I Dig of You (Live in Alghero) 04:10
27 - Remember You (Live in Senigallia) 06:00
28 - Softly as in a Morning Sunrise (Live in Senigallia) 06:24
29 - It's Easy to Remember (Live in Senigallia) 08:47
30 - I Hear a Rhapsody (Live in Senigallia) 06:37
31 - For Marta (Live in Senigallia) 08:24
32 - N.O. Blues (Live in Senigallia) 06:36

Состав:
  • Massimo Faraò — piano
  • Walter Booker — bass
  • Jimmy Cobb — drums
Лог проверки качества
foobar2000 1.4 / Dynamic Range Meter 1.1.1
log date: 2021-02-01 08:11:06
--------------------------------------------------------------------------------
Analyzed: Massimo Faraò / Massimo Faraò playing with the Jazz Masters, Vol. 1 (Live Recording)
--------------------------------------------------------------------------------
DR         Peak         RMS     Duration Track
--------------------------------------------------------------------------------
DR7        0.00 dB   -10.85 dB      7:15 01-Winetone (Live at Vapore Jazz Club)
DR6        0.00 dB    -8.23 dB      8:32 02-Un bacio a mezzanotte (Live at Vapore Jazz Club)
DR6        0.00 dB    -9.40 dB      6:36 03-Samba per Marta (Live at Vapore Jazz Club)
DR7        0.00 dB    -8.95 dB      6:19 04-I Love You (Live at Vapore Jazz Club)
DR10       0.00 dB   -13.64 dB      9:07 05-Easy Living (Live at Vapore Jazz Club)
DR8        0.00 dB   -10.34 dB      5:22 06-This I Dig of You (Live at Vapore Jazz Club)
DR10       0.00 dB   -12.86 dB     11:54 07-Alone Together (Live at Caffe' Defilla)
DR10       0.00 dB   -12.60 dB      8:24 08-Have You Met Miss Jones? (Live at Caffe' Defilla)
DR9        0.00 dB   -12.01 dB      6:24 09-N.O. Blues (Live at Caffe' Defilla)
DR10       0.00 dB   -12.14 dB     12:06 10-If I Should Lose You (Live at Caffe' Defilla)
DR11       0.00 dB   -14.54 dB      7:20 11-Easy Living (Live at Caffe' Defilla)
DR9        0.00 dB   -11.48 dB      8:05 12-Will You Still Be Mine? (Live at Caffe' Defilla)
DR11       0.00 dB   -14.25 dB      7:59 13-A Tommaso (Live at Alpheus Jazz Club)
DR7        0.00 dB    -9.07 dB      5:06 14-Bag's Groove (Live at Alpheus Jazz Club)
DR10       0.00 dB   -12.18 dB      8:26 15-I Love You (Live at Alpheus Jazz Club)
DR12       0.00 dB   -15.99 dB      7:48 16-There Is No Greater Love (Live at Alpheus Jazz Club)
DR10       0.00 dB   -12.17 dB      7:02 17-What Is This Thing Called Love? (Live at Alpheus Jazz Club)
DR8        0.00 dB   -10.70 dB      7:25 18-This I Dig of You (Live at Alpheus Jazz Club)
DR11       0.00 dB   -13.08 dB      8:05 19-Will You Still Be Mine? (Live at Alpheus Jazz Club)
DR17      -2.45 dB   -22.61 dB      5:19 20-Have You Met Miss Jones? (Live in Alghero)
DR21      -1.50 dB   -26.02 dB      8:05 21-My Baby Love (Live in Alghero)
DR20      -2.47 dB   -26.01 dB      9:02 22-Will You Still Be Mine? (Live in Alghero)
DR18       0.00 dB   -21.73 dB      6:47 23-N.O. Blues (Live in Alghero)
DR15       0.00 dB   -19.38 dB      6:31 24-Broadway (Live in Alghero)
DR19      -2.65 dB   -27.52 dB      7:08 25-Easy Living (Live in Alghero)
DR18      -0.10 dB   -22.38 dB      4:11 26-This I Dig of You (Live in Alghero)
DR12       0.00 dB   -16.03 dB      6:00 27-Remember You (Live in Senigallia)
DR12       0.00 dB   -14.37 dB      6:25 28-Softly as in a Morning Sunrise (Live in Senigallia)
DR16      -2.85 dB   -24.34 dB      8:48 29-It's Easy to Remember (Live in Senigallia)
DR12       0.00 dB   -15.77 dB      6:38 30-I Hear a Rhapsody (Live in Senigallia)
DR16       0.00 dB   -20.45 dB      8:25 31-For Marta (Live in Senigallia)
DR14       0.00 dB   -17.84 dB      6:37 32-N.O. Blues (Live in Senigallia)
--------------------------------------------------------------------------------
Number of tracks:  32
Official DR value: DR12
Samplerate:        44100 Hz
Channels:          2
Bits per sample:   24
Bitrate:           1600 kbps
Codec:             FLAC
================================================================================
По всем вопросам пишите личное сообщение пользователю M0p94ok.
23:35
134
Нет комментариев. Ваш будет первым!