Вы используете незарегистрированную версию компонента "Вкладки"!

Поиск

2020 Lawson Rollins - True North {Infinita} [24-96]

2020 Lawson Rollins - True North {Infinita} [24-96]
Носитель:
WEB
Формат:
Dolby Digital
Тип рипа:
tracks+.cue
Контейнер:
FLAC (*.flac)
Количество каналов:
2.0
Разрядность/ЧД:
24/96
Время звучания:
00:49:43
Наличие сканов:
web
Релизёр (источник):
M0p94ok
Лог проверки качества
foobar2000 1.4.3 / Dynamic Range Meter 1.1.1
log date: 2020-01-31 11:46:24

--------------------------------------------------------------------------------
Analyzed: Lawson Rollins / True North
--------------------------------------------------------------------------------

DR         Peak         RMS     Duration Track
--------------------------------------------------------------------------------
DR6       -0.10 dB    -7.83 dB      4:32 01-True North
DR6       -0.10 dB    -7.76 dB      4:45 02-With the Wind
DR6       -0.10 dB    -7.80 dB      3:28 03-Perpetual Motion
DR6       -0.10 dB    -7.88 dB      4:24 04-Bluewave Bossanova
DR7       -0.10 dB    -7.82 dB      3:59 05-South Beach
DR6       -0.10 dB    -7.84 dB      3:43 06-Full Sail
DR6       -0.10 dB    -8.05 dB      3:58 07-Dead Ahead
DR8       -0.10 dB   -10.03 dB      4:58 08-Yearning to Know
DR8       -0.10 dB   -10.04 dB      4:24 09-Year Abroad
DR7       -0.10 dB    -9.17 dB      3:17 10-Nostalgia
DR7       -0.10 dB   -10.39 dB      3:50 11-In the Shadows
DR6       -0.10 dB    -8.07 dB      4:32 12-The Winding Road
--------------------------------------------------------------------------------

Number of tracks:  12
Official DR value: DR7

Samplerate:        96000 Hz
Channels:          2
Bits per sample:   24
Bitrate:           2738 kbps
Codec:             FLAC
================================================================================
Any questions - support@pro-jazz.com. Есть вопросы - support@pro-jazz.com
00:10
308
Нет комментариев. Ваш будет первым!