Поиск

2020 L'âme des poètes – Le Métèque {Igloo} [24-88,2]

2020 L'âme des poètes – Le Métèque {Igloo} [24-88,2]
Стили:
Битрейт аудио:
lossless
Треклист:

01. Le métèque  05:46
02. La complainte du phoque en alaska  05:26
03. La bicyclette  04:56
04. Dans mon île  05:01
05. J'ai deux amours  05:31
06. T'as beau pas être beau  05:33
07. La mamma  06:35
08. Bruxelles  05:24
09. Guaglione  04:49
10. Marie-Jeanne (Ode to Billie Joe)  05:33
11. Le galérien / Le chant des partisans  06:14

Состав:
  • Fabien Degryse – guitar
  • Jean-Louis Rassinfosse – double bass
  • Pierre Vaiana – saxophone
Доп. инфо:

Формат записи/Источник записи: [TR24][OF]
Наличие водяных знаков: Нет
Год издания/переиздания диска: 2020
Издатель (лейбл): Igloo Records
Продолжительность: 01:00:52
Наличие сканов в содержимом раздачи: Только обложка
Источник: igloorecords
Контейнер: FLAC (*.flac)
Тип рипа: tracks
Разрядность: 24/88,2
Формат: PCM
Количество каналов: 2.0

Лог проверки качества
foobar2000 1.3.16 / Dynamic Range Meter 1.1.1
log date: 2020-06-13 23:03:26

––––––––––––––––––––––––––––––––––––––––
Analyzed: L'âme des poètes / Le métèque
––––––––––––––––––––––––––––––––––––––––

DR Peak RMS Duration Track
––––––––––––––––––––––––––––––––––––––––
DR7 -0.46 dB -9.21 dB 5:47 01-Le métèque
DR7 -0.46 dB -9.94 dB 5:26 02-La complainte du phoque en alaska
DR8 -0.46 dB -10.15 dB 4:56 03-La bicyclette
DR10 -0.19 dB -12.80 dB 5:01 04-Dans mon île
DR8 -0.46 dB -9.86 dB 5:31 05-J'ai deux amours
DR8 -0.46 dB -10.00 dB 5:34 06-T'as beau pas être beau
DR8 -0.46 dB -10.07 dB 6:36 07-La mamma
DR8 -0.46 dB -10.20 dB 5:25 08-Bruxelles
DR7 -0.46 dB -9.40 dB 4:50 09-Guaglione
DR8 -0.46 dB -9.77 dB 5:33 10-Marie-Jeanne (Ode to Billie Joe)
DR9 -0.46 dB -11.19 dB 6:15 11-Le galérien / Le chant des partisans
––––––––––––––––––––––––––––––––––––––––

Number of tracks: 11
Official DR value: DR8

Samplerate: 88200 Hz
Channels: 2
Bits per sample: 24
Bitrate: 2621 kbps
Codec: FLAC
================================================================================
По всем вопросам пишите личное сообщение пользователю M0p94ok.
10:31
423
Нет комментариев. Ваш будет первым!