Поиск

2020 Kalle Moberg - The Tokyo Sessions, Vol. 2 Twist {KAMO} [24-96]

2020 Kalle Moberg - The Tokyo Sessions, Vol. 2 Twist {KAMO} [24-96]
Место записи:
Hoshi To Niji Recording Studio
Дата издания диска:
23 октября 2020
Номер по каталогу:
KAMO002
Носитель:
WEB
Формат:
PCM
Тип рипа:
tracks
Контейнер:
FLAC (*.flac)
Количество каналов:
2.0
Разрядность/ЧД:
24/96
Битрейт аудио:
lossless
Время звучания:
00:38:58
Наличие сканов:
только обложка
Страна-производитель диска (релиза):
Norway

Треклист:

1. Twisting    11:56
2. Fighting The Long Defeat     6:01
3. Slanting    3:57
4. A Treacherously Bright Morning     10:28
5. Crash And Burn     6:34

Состав:
  •     Accordion – Kalle Moberg
  •     Double Bass – Marty Holoubek
  •     Drums – Joe Talia (tracks: 2-5)
  •     Recorded By – Jim O'Rourke
Лог проверки качества
foobar2000 1.6.10 / Dynamic Range Meter 1.1.1
log date: 2022-05-11 10:59:03

--------------------------------------------------------------------------------
Analyzed: Kalle Moberg / The Tokyo Sessions Volume 2: Twist
--------------------------------------------------------------------------------

DR         Peak         RMS     Duration Track
--------------------------------------------------------------------------------
DR10      -0.40 dB   -12.80 dB     11:57 01-Twisting
DR13      -0.40 dB   -19.18 dB      6:02 02-Fighting The Long Defeat
DR10      -0.40 dB   -14.39 dB      3:57 03-Slanting
DR12      -0.40 dB   -18.01 dB     10:28 04-A Treacherously Bright Morning
DR10      -0.40 dB   -12.57 dB      6:34 05-Crash And Burn
--------------------------------------------------------------------------------

Number of tracks:  5
Official DR value: DR11

Samplerate:        96000 Hz
Channels:          2
Bits per sample:   24
Bitrate:           2775 kbps
Codec:             FLAC
================================================================================
11:20
371
Нет комментариев. Ваш будет первым!