Вы используете незарегистрированную версию компонента "Вкладки"!

Поиск

2020 John Scofield - Swallow Tales {ECM} [24-96]

2020 John Scofield - Swallow Tales {ECM} [24-96]
Стили:
Издатель (лейбл):
Битрейт аудио:
lossless
Доп. инфо:

Формат записи/Источник записи: [TR24][OF]
Наличие водяных знаков: Нет
Год издания: 2020
Продолжительность: 00:53:16
Наличие сканов в содержимом раздачи: Буклет PDF
Контейнер: FLAC (*.flac)
Тип рипа: tracks
Разрядность: 24/96
Формат: PCM
Количество каналов: 2.0
Источник (релизер): highresaudio.com

Лог проверки качества
foobar2000 1.4.8 / Dynamic Range Meter 1.1.1
log date: 2020-06-12 05:39:18

--------------------------------------------------------------------------------
Analyzed: John Scofield / Swallow Tales
--------------------------------------------------------------------------------

DR         Peak         RMS     Duration Track
--------------------------------------------------------------------------------
DR14      -0.92 dB   -19.13 dB      9:29 01-She Was Young
DR12      -2.66 dB   -17.97 dB      5:24 02-Falling Grace
DR13      -1.85 dB   -17.09 dB      3:31 03-Portsmouth Figurations
DR13      -2.60 dB   -18.92 dB      9:24 04-Awful Coffee
DR13      -2.06 dB   -16.78 dB      7:10 05-Eiderdown
DR12      -3.64 dB   -20.35 dB      4:11 06-Hullo Bolinas
DR12      -8.06 dB   -24.04 dB      4:50 07-Away
DR13      -2.48 dB   -18.20 dB      4:30 08-In F
DR12      -1.99 dB   -17.23 dB      4:22 09-Radio
--------------------------------------------------------------------------------

Number of tracks:  9
Official DR value: DR13
Samplerate:        96000 Hz
Channels:          2
Bits per sample:   24
Bitrate:           3014 kbps
Codec:             FLAC
================================================================================
Any questions - support@pro-jazz.com. Есть вопросы - support@pro-jazz.com
07:33
321
Нет комментариев. Ваш будет первым!