Поиск

2020 John Hendricks - Before Us {Nagel Heyer} [24-44,1]

2020 John Hendricks - Before Us {Nagel Heyer} [24-44,1]
Стили:
Издатель (лейбл):
Битрейт аудио:
lossless
Треклист:

01 - Out of the Past 04:56
02 - Another Get Together 04:18
03 - With Malice Towards None 02:51
04 - The Shouter 05:03
05 - Pretty Strange 02:54
06 - If I Had My Share 04:12
07 - Please Send Me Someone to Love 02:30
08 - Saturday Night Fish Fry 03:33
09 - That's Enough 02:10
10 - Things Ain't What They Used to Be 02:51
11 - A Good Git-Together 03:41
12 - Contemporary Blues 04:24
13 - Everything Started in the House of the Lord 01:02
14 - Caravan 02:35
15 - What Would You Do 02:35
16 - Fast Livin' Blues 05:41
17 - I'll Die Happy 02:22
18 - I Don't Know What Kind of Blues I've Got 03:32
19 - Social Call 02:22
20 - Good Old Lady 03:06
21 - Do You Call That a Buddy 04:18
22 - Everything Started in the House of the Lord II 02:26
23 - In a Mellow Tone 03:31
24 - I'll Never Get Enough of You 03:01

Доп. инфо:

Формат записи/Источник записи: [TR24][OF]
Издание: Remastered
Год издания/переиздания диска: 2020
Продолжительность: 01:19:54
Наличие сканов в содержимом раздачи: Нет

Контейнер: FLAC (*.flac)
Тип рипа: tracks
Разрядность: 24/44,1
Формат: PCM
Количество каналов: 2.0

Лог проверки качества
foobar2000 1.4.3 / Dynamic Range Meter 1.1.1
log date: 2020-09-16 16:50:27

--------------------------------------------------------------------------------
Analyzed: Jon Hendricks / Before Us
--------------------------------------------------------------------------------

DR         Peak         RMS     Duration Track
--------------------------------------------------------------------------------
DR9       -1.00 dB   -13.79 dB      4:56 01-Out of the Past
DR9       -1.00 dB   -11.28 dB      4:18 02-Another Get Together
DR8       -1.00 dB   -11.37 dB      2:52 03-With Malice Towards None
DR9       -1.00 dB   -12.57 dB      5:03 04-The Shouter
DR10      -1.00 dB   -14.72 dB      2:55 05-Pretty Strange
DR10      -1.00 dB   -13.31 dB      4:12 06-If I Had My Share
DR9       -1.00 dB   -12.93 dB      2:30 07-Please Send Me Someone to Love
DR8       -1.00 dB   -10.59 dB      3:33 08-Saturday Night Fish Fry
DR9       -1.00 dB   -12.13 dB      2:10 09-That's Enough
DR8       -1.00 dB   -10.55 dB      2:51 10-Things Ain't What They Used to Be
DR9       -1.00 dB   -12.68 dB      3:42 11-A Good Git-Together
DR9       -1.00 dB   -13.22 dB      4:25 12-Contemporary Blues
DR10      -1.00 dB   -13.52 dB      1:03 13-Everything Started in the House of the Lord
DR7       -1.00 dB    -9.85 dB      2:35 14-Caravan
DR8       -1.00 dB   -11.11 dB      2:35 15-What Would You Do
DR9       -1.00 dB   -13.36 dB      5:41 16-Fast Livin' Blues
DR10      -1.00 dB   -12.97 dB      2:23 17-I'll Die Happy
DR8       -1.00 dB   -10.19 dB      3:33 18-I Don't Know What Kind of Blues I've Got
DR9       -1.00 dB   -12.81 dB      2:22 19-Social Call
DR8       -1.00 dB   -10.30 dB      3:06 20-Good Old Lady
DR8       -1.00 dB   -12.33 dB      4:18 21-Do You Call That a Buddy
DR9       -1.00 dB   -11.59 dB      2:27 22-Everything Started in the House of the Lord II
DR9       -1.00 dB   -11.27 dB      3:31 23-In a Mellow Tone
DR8       -1.00 dB   -10.70 dB      3:02 24-I'll Never Get Enough of You
--------------------------------------------------------------------------------

Number of tracks:  24
Official DR value: DR9

Samplerate:        44100 Hz
Channels:          2
Bits per sample:   24
Bitrate:           1616 kbps
Codec:             FLAC
================================================================================
Приватный:
Нет (DHT включён)
Размер:
924.58 Мб (969,491,597 байт) » файлов: 29
Участники:
0 раздают, 0 качают (0 участников всего)
Внешние участники:
--- [ Обновить ]
No seeders - write personal message to M0p94ok. Any questions - support@pro-jazz.com.
Нет сидеров - пишите в личку M0p94ok. Есть вопросы - support@pro-jazz.com
20:23
223
Нет комментариев. Ваш будет первым!