Вы используете незарегистрированную версию компонента "Вкладки"!

Поиск

2020 Jean-Louis Matinier - Rivages {ECM} [24-96]

2020 Jean-Louis Matinier - Rivages {ECM} [24-96]
Стили:
Издатель (лейбл):
Битрейт аудио:
lossless
Доп. инфо:

Формат записи/Источник записи: [TR24][OF]
Наличие водяных знаков: Нет
Год издания: 2020
Продолжительность: 00:39:32
Наличие сканов в содержимом раздачи: Буклет PDF
Контейнер: FLAC (*.flac)
Тип рипа: tracks
Разрядность: 24/96
Формат: PCM
Количество каналов: 2.0
Источник (релизер): highresaudio.com

Лог проверки качества
foobar2000 1.4.8 / Dynamic Range Meter 1.1.1
log date: 2020-05-30 08:17:44

--------------------------------------------------------------------------------
Analyzed: Jean-Louis Matinier / Rivages
--------------------------------------------------------------------------------

DR         Peak         RMS     Duration Track
--------------------------------------------------------------------------------
DR13      -1.50 dB   -18.13 dB      4:52 01-Schumannsko
DR9       -1.50 dB   -14.94 dB      3:38 02-Après la pluie
DR13      -1.59 dB   -20.31 dB      3:22 03-Les berceaux
DR12      -1.50 dB   -17.99 dB      3:19 04-Rêverie
DR14      -1.50 dB   -20.20 dB      3:12 05-Miroirs
DR11      -1.50 dB   -17.17 dB      3:57 06-Greensleeves
DR14      -1.50 dB   -20.21 dB      2:28 07-Feux follets
DR12      -1.50 dB   -18.44 dB      3:46 08-La chanson d'Hélène
DR11      -1.50 dB   -15.94 dB      4:40 09-In C
DR14      -1.50 dB   -19.54 dB      2:11 10-Derivando
DR12      -1.50 dB   -20.33 dB      4:13 11-Sous l'horizon
--------------------------------------------------------------------------------

Number of tracks:  11
Official DR value: DR12
Samplerate:        96000 Hz
Channels:          2
Bits per sample:   24
Bitrate:           2628 kbps
Codec:             FLAC
================================================================================
Any questions - support@pro-jazz.com. Есть вопросы - support@pro-jazz.com
19:43
231
Нет комментариев. Ваш будет первым!