Вы используете незарегистрированную версию компонента "Вкладки"!

Поиск

2020 Iwao Ochi – Dem New York Dues {AGATE} [24-96]

2020 Iwao Ochi – Dem New York Dues {AGATE} [24-96]
Стили:
Битрейт аудио:
lossless
Доп. инфо:

Формат записи/Источник записи: [TR24][OF]
Наличие водяных знаков: Нет
Год издания: 2020
Издатель (лейбл): AGATE
Продолжительность: 00:52:51
Наличие сканов в содержимом раздачи: Только обложка
Источник: HDtracks
Контейнер: FLAC (*.flac)
Тип рипа: tracks
Разрядность: 24/96
Формат: PCM
Количество каналов: 2.0

Лог проверки качества
foobar2000 1.3.16 / Dynamic Range Meter 1.1.1
log date: 2020-03-30 06:00:59

––––––––––––––––––––––––––––––––––––––––
Analyzed: Iwao Ochi / Dem New York Dues
––––––––––––––––––––––––––––––––––––––––

DR Peak RMS Duration Track
––––––––––––––––––––––––––––––––––––––––
DR8 -1.10 dB -11.15 dB 4:58 01-2020
DR10 -1.10 dB -13.98 dB 7:24 02-Red Moon
DR10 -1.10 dB -12.70 dB 5:58 03-Isn't This My Sound Around Me?
DR10 -1.10 dB -14.55 dB 7:47 04-Listen to Me
DR8 -1.10 dB -11.82 dB 6:14 05-Dem New York Dues
DR10 -1.10 dB -13.26 dB 5:40 06-Somewhere in the Night
DR11 -1.10 dB -15.34 dB 8:29 07-Everything Happens to Me
DR9 -1.10 dB -11.42 dB 6:21 08-Mr.B
––––––––––––––––––––––––––––––––––––––––

Number of tracks: 8
Official DR value: DR10

Samplerate: 96000 Hz
Channels: 2
Bits per sample: 24
Bitrate: 2903 kbps
Codec: FLAC
================================================================================
Any questions - support@pro-jazz.com. Есть вопросы - support@pro-jazz.com
23:16
254
Нет комментариев. Ваш будет первым!