Вы используете незарегистрированную версию компонента "Вкладки"!

Поиск

2020 Hank Jones - Live at Slukefter, Vol. 2 {Storyville} [24-44,1]

2020 Hank Jones - Live at Slukefter, Vol. 2 {Storyville} [24-44,1]
Стили:
Издатель (лейбл):
Битрейт аудио:
lossless
Доп. инфо:

• Формат записи | Источник записи: [TR24][OF]
• Наличие водяных знаков: Нет
• Год издания релиза: 2020
• Продолжительность: 01:01:25
• Источник: internet
• WEB релиз: ссылка
• Контейнер: FLAC (*.flac)
• Тип рипа: tracks
• Разрядность: 24/44,1
• Формат: WAV (flac.ape.wv)
• Количество каналов: 2.0
• Наличие сканов: front

Лог проверки качества
foobar2000 1.4.2 / Замер динамического диапазона (DR) 1.1.1
Дата отчёта:  2020-03-24 10:52:21

--------------------------------------------------------------------------------
Анализ:   Hank Jones / Live at Slukefter, Vol. 2
--------------------------------------------------------------------------------

DR         Пики         RMS           Продолжительность трека
--------------------------------------------------------------------------------
DR14      -3.79 дБ   -20.50 дБ      6:57 01-Recorda Me / No Me Esquica (Live)
DR18      -0.05 дБ   -21.24 дБ      7:08 02-Arrival (Live)
DR15      -3.16 дБ   -22.43 дБ      7:28 03-Emily (Live)
DR17       0.00 дБ   -19.93 дБ      8:52 04-All the Things You Are (Live)
DR15      -1.26 дБ   -19.68 дБ      6:23 05-Yours Is My Heart Alone / You Are My Hearts Delight (Live)
DR14      -5.43 дБ   -22.06 дБ      7:45 06-Ruby My Dear (Live)
DR15       0.00 дБ   -18.53 дБ      5:09 07-The Bruise (Live)
DR15      -0.42 дБ   -18.90 дБ      8:08 08-Interlude (Live)
DR15      -0.18 дБ   -18.56 дБ      3:39 09-Moose The Mooche (Live)
--------------------------------------------------------------------------------

Количество треков: 9
Реальные значения DR: DR15

Частота:   44100 Гц
Каналов:   2
Разрядность:   24
Битрейт:   1368 кбит/с
Кодек:   FLAC
================================================================================
Any questions - support@pro-jazz.com. Есть вопросы - support@pro-jazz.com
23:10
298
Нет комментариев. Ваш будет первым!