Вы используете незарегистрированную версию компонента "Вкладки"!

Поиск

2020 Gloria Reuben & Marty Ashby - For All We Know {MCG Jazz MCGJ-1050} [24-44,1]

2020 Gloria Reuben & Marty Ashby - For All We Know {MCG Jazz MCGJ-1050} [24-44,1]
Стили:
Номер по каталогу:
MCG Jazz MCGJ-1050
Доп. инфо:

• Формат записи | Источник записи: [TR24][OF]
• Наличие водяных знаков: Нет
• Год издания релиза: 2020
• Лейбл: MCG Jazz
• Продолжительность: 00:33:21
• Источник: internet
• WEB релиз: ссылка
• Контейнер: FLAC (*.flac)
• Тип рипа: tracks
• Разрядность: 24/44,1
• Формат: PCM
• Количество каналов: 2.0
• Наличие сканов: booklet

Лог проверки качества
foobar2000 1.3.9 / Замер динамического диапазона (DR) 1.1.1
Дата отчёта:  2020-02-13 08:43:01

--------------------------------------------------------------------------------
Анализ:   Gloria Reuben & Marty Ashby / For All We Know
--------------------------------------------------------------------------------

DR         Пики         RMS           Продолжительность трека
--------------------------------------------------------------------------------
DR9       -0.46 дБ   -11.57 дБ      3:15 01-I’ll Close My Eyes
DR11      -0.67 дБ   -14.84 дБ      2:40 02-A Time For Love
DR10      -0.59 дБ   -12.96 дБ      3:38 03-Time After Time
DR10      -0.65 дБ   -13.05 дБ      4:16 04-For All We Know
DR9       -0.48 дБ   -11.78 дБ      3:52 05-I Get Along Without You Very Well
DR9       -0.47 дБ   -12.63 дБ      3:54 06-The People That You Never Get To Love
DR10      -0.60 дБ   -12.31 дБ      4:06 07-Maybe You’ll Be There
DR10      -0.62 дБ   -12.29 дБ      2:13 08-How High The Moon
DR11      -0.63 дБ   -14.92 дБ      2:57 09-Where Do You Start?
DR10      -0.61 дБ   -12.53 дБ      2:32 10-Sing My Heart
--------------------------------------------------------------------------------

Количество треков: 10
Реальные значения DR: DR10

Частота:   44100 Гц
Каналов:   2
Разрядность:   24
Битрейт:   1319 кбит/с
Кодек:   FLAC
================================================================================
Any questions - support@pro-jazz.com. Есть вопросы - support@pro-jazz.com
12:05
338
Нет комментариев. Ваш будет первым!