Вы используете незарегистрированную версию компонента "Вкладки"!

Поиск

2020 Frøydis Grorud - End of a Beautiful Story {Jazzland} [24-48]

2020 Frøydis Grorud - End of a Beautiful Story {Jazzland} [24-48]
Стили:
Битрейт аудио:
lossless
Доп. инфо:

• Формат записи | Источник записи: [TR24][OF]
• Наличие водяных знаков: Нет
• Год издания релиза: 2020
• Лейбл: Jazzland Recordings
• Продолжительность: 00:48:37
• Источник: internet
• WEB релиз: ссылка
• Контейнер: FLAC (*.flac)
• Тип рипа: tracks
• Разрядность: 24/48
• Формат: PCM
• Количество каналов: 2.0
• Наличие сканов: front

Лог проверки качества
foobar2000 1.4.2 / Замер динамического диапазона (DR) 1.1.1
Дата отчёта:  2020-03-17 10:51:33

--------------------------------------------------------------------------------
Анализ:   Froydis Grorud / End of a Beautiful Story
--------------------------------------------------------------------------------

DR         Пики         RMS           Продолжительность трека
--------------------------------------------------------------------------------
DR13      -0.82 дБ   -18.66 дБ      5:00 01-Luna
DR14      -0.90 дБ   -19.81 дБ      5:50 02-March Melancholy
DR12       0.00 дБ   -14.11 дБ      4:45 03-Happy Place
DR9        0.00 дБ   -12.71 дБ      5:41 04-Ella
DR11      -1.25 дБ   -16.22 дБ      4:03 05-Flow
DR12      -0.33 дБ   -15.37 дБ      3:24 06-The Sweet Beat
DR14      -0.07 дБ   -18.01 дБ      3:37 07-Reconciliation
DR12       0.00 дБ   -13.89 дБ      2:42 08-Glimpse of Hope
DR13       0.00 дБ   -16.98 дБ      4:38 09-Night Game
DR12      -0.45 дБ   -18.35 дБ      4:32 10-End of a Beautiful Story
DR14       0.00 дБ   -17.17 дБ      4:25 11-Song for Benedikte
--------------------------------------------------------------------------------

Количество треков: 11
Реальные значения DR: DR12

Частота:   48000 Гц
Каналов:   2
Разрядность:   24
Битрейт:   1423 кбит/с
Кодек:   FLAC
================================================================================
Any questions - support@pro-jazz.com. Есть вопросы - support@pro-jazz.com
22:45
281
Нет комментариев. Ваш будет первым!