Вы используете незарегистрированную версию компонента "Вкладки"!

Поиск

2020 Erlend Apneseth – Fragmentarium {Hubro} [24-48]

2020 Erlend Apneseth – Fragmentarium {Hubro} [24-48]
Доп. инфо:

Формат записи/Источник записи: [TR24][OF]
Наличие водяных знаков: Нет
Год издания: 2020
Издатель (лейбл): Hubro
Продолжительность: 00:33:30
Наличие сканов в содержимом раздачи: Только обложка
Источник: qobuz
Контейнер: FLAC (*.flac)
Тип рипа: tracks
Разрядность: 24/48
Формат: PCM
Количество каналов: 2.0

Лог проверки качества
foobar2000 1.3.7 / Dynamic Range Meter 1.1.1
log date: 2020-02-03 13:08:45

––––––––––––––––––––––––––––––––––––––––
Analyzed: Erlend Apneseth / Fragmentarium
––––––––––––––––––––––––––––––––––––––––

DR Peak RMS Duration Track
––––––––––––––––––––––––––––––––––––––––
DR6 -0.50 dB -10.31 dB 6:13 01-Gangar
DR8 -0.50 dB -11.52 dB 6:06 02-Du fallande jord
DR8 -0.50 dB -12.23 dB 5:00 03-Fragmentarium
DR8 -0.50 dB -11.95 dB 6:29 04-Gruvene
DR8 -9.21 dB -26.54 dB 1:29 05-No, etterpå
DR7 -0.50 dB -10.47 dB 5:10 06-Det mørknar
DR5 -0.50 dB -10.73 dB 3:06 07-Omkved
––––––––––––––––––––––––––––––––––––––––

Number of tracks: 7
Official DR value: DR7

Samplerate: 48000 Hz
Channels: 2
Bits per sample: 24
Bitrate: 1540 kbps
Codec: FLAC
================================================================================
Any questions - support@pro-jazz.com. Есть вопросы - support@pro-jazz.com
10:04
359
Нет комментариев. Ваш будет первым!