Вы используете незарегистрированную версию компонента "Вкладки"!

Поиск

2020 Diane Schuur - Running on Faith {Jazzheads} [24-44,1]

2020 Diane Schuur - Running on Faith {Jazzheads} [24-44,1]
Битрейт аудио:
lossless
Доп. инфо:

Формат записи/Источник записи: [TR24][OF]
Год издания/переиздания диска: 2020
Издатель (лейбл): Jazzheads
Продолжительность: 01:06:40
Наличие сканов в содержимом раздачи: Нет
Контейнер: FLAC (*.flac)
Тип рипа: tracks
Разрядность: 24/44,1
Количество каналов: 2.0

Источник (релизер): Qobuz

Лог проверки качества
foobar2000 1.4.3 / Dynamic Range Meter 1.1.1
log date: 2020-04-05 20:27:22

--------------------------------------------------------------------------------
Analyzed: Diane Schuur / Running on Faith
--------------------------------------------------------------------------------

DR         Peak         RMS     Duration Track
--------------------------------------------------------------------------------
DR13      -1.02 dB   -16.08 dB      4:25 01-Walking on a Tightrope
DR13      -1.03 dB   -17.03 dB      4:53 02-The Danger Zone
DR11      -1.02 dB   -14.93 dB      4:39 03-All Blues
DR14      -1.02 dB   -17.78 dB      5:52 04-Something so Right
DR13      -1.02 dB   -16.68 dB      7:16 05-Let It Be
DR15      -1.02 dB   -18.94 dB      5:32 06-The Sun Will Shine on You
DR13      -1.03 dB   -15.92 dB      6:51 07-Everybody Looks Good at the Starting Line
DR14      -1.01 dB   -17.53 dB      4:59 08-There is Always One More Time
DR13      -1.03 dB   -15.38 dB      6:17 09-Chicken
DR10      -1.02 dB   -15.69 dB      3:30 10-This Bitter Earth
DR12      -1.01 dB   -16.25 dB      4:38 11-Running on Faith
DR13      -1.01 dB   -16.57 dB      4:22 12-Way over Yonder
DR12      -1.02 dB   -17.24 dB      3:33 13-Swing Low Sweet Chariot
--------------------------------------------------------------------------------

Number of tracks:  13
Official DR value: DR13

Samplerate:        44100 Hz
Channels:          2
Bits per sample:   24
Bitrate:           1248 kbps
Codec:             FLAC
================================================================================
Any questions - support@pro-jazz.com. Есть вопросы - support@pro-jazz.com
11:53
610
Нет комментариев. Ваш будет первым!