Вы используете незарегистрированную версию компонента "Вкладки"!

Поиск

2020 Derrick Hodge - Color Of Noize {Blue Note} [24-96]

2020 Derrick Hodge - Color Of Noize {Blue Note} [24-96]
Издатель (лейбл):
Битрейт аудио:
lossless
Доп. инфо:

Формат записи/Источник записи: [TR24][OF]
Наличие водяных знаков: Нет
Год издания/переиздания диска: 2020
Продолжительность: 00:52:33
Наличие сканов в содержимом раздачи: Только обложка альбома
Источник (релизер): highresaudio

Контейнер: FLAC (*.flac)
Тип рипа: tracks
Разрядность: 24/96
Формат: PCM
Количество каналов: 2.0

Лог проверки качества
foobar2000 1.1.15 / Dynamic Range Meter 1.1.1
log date: 2020-06-26 18:10:06

--------------------------------------------------------------------------------
Analyzed: Derrick Hodge / COLOR OF NOIZE
--------------------------------------------------------------------------------

DR         Peak         RMS     Duration Track
--------------------------------------------------------------------------------
DR4       -0.35 dB    -7.50 dB      4:39 01-The Cost
DR5       -0.20 dB    -6.35 dB      6:27 02-Not Right Now
DR8       -0.35 dB   -10.84 dB      1:15 03-Little Tone Poem
DR7       -0.35 dB   -11.07 dB      4:44 04-You Could Have Stayed
DR3       -0.35 dB    -5.48 dB      7:00 05-Color Of Noize
DR7       -0.35 dB    -8.91 dB      4:58 06-19
DR7       -0.35 dB   -10.06 dB      6:24 07-Fall
DR9       -0.35 dB   -13.30 dB      5:12 08-Looking At You
DR10      -0.35 dB   -12.56 dB      3:33 09-Heartbeats
DR5       -0.35 dB    -7.57 dB      5:29 10-New Day
DR13      -0.35 dB   -17.97 dB      2:58 11-You Could Have Stayed (Piano Version)
--------------------------------------------------------------------------------

Number of tracks:  11
Official DR value: DR7

Samplerate:        96000 Hz
Channels:          2
Bits per sample:   24
Bitrate:           2091 kbps
Codec:             FLAC
================================================================================
Any questions - support@pro-jazz.com. Есть вопросы - support@pro-jazz.com
23:14
253
Нет комментариев. Ваш будет первым!