Поиск

2020 Bruce Turner - Deep in My Heart {Nagel Heyer} [24-44,1]

2020 Bruce Turner - Deep in My Heart {Nagel Heyer} [24-44,1]
Стили:
Дата издания диска:
27 февраля 2020
Издатель (лейбл):
Битрейт аудио:
lossless

Треклист:

01 - Going Places 02:54
02 - Love Is Just Around the Corner 02:25
03 - Creole Love Call 03:55
04 - Gone Away Blues 04:36
05 - Viper Mad 03:22
06 - Blueberry Hill 03:33
07 - Big Noise from Winnetka 02:06
08 - Blue Turning Grey over You 04:33
09 - I've Got to Sing a Torch Song 03:18
10 - Chicago 03:32
11 - Indian Summer 04:12
12 - Mandy, Make up Your Mind 03:28
13 - Donegal Cradle Song 03:09
14 - St. Louis Blues 02:44
15 - On Treasure Island 03:46
16 - You're a Heavenly Thing 02:36
17 - Imagination 04:09
18 - New Orleans Hop Scop Blues 02:12
19 - Farewell Blues 03:43
20 - Chinatown, My Chinatown 02:22
21 - Blue Feeling 05:17
22 - That's the Blues, Dad 03:44
23 - Your Eyes 03:16
24 - Stop, Look and Listen 02:22
25 - Don't Get Around Much Anymore 04:12
26 - Jumpin' at the Woodside 03:58
27 - Roses of Picardy 02:20

Доп. инфо:

Формат записи/Источник записи: [TR24][OF]
Издание: Remastered
Год издания/переиздания диска: 2020
Продолжительность: 01:31:44
Наличие сканов в содержимом раздачи: Нет
Контейнер: FLAC (*.flac)
Тип рипа: tracks
Разрядность: 24/44,1
Количество каналов: 2.0

Источник (релизер): Qobuz

Лог проверки качества
foobar2000 1.4.3 / Dynamic Range Meter 1.1.1
log date: 2020-10-28 23:14:12

--------------------------------------------------------------------------------
Analyzed: Bruce Turner / Deep in My Heart
--------------------------------------------------------------------------------

DR         Peak         RMS     Duration Track
--------------------------------------------------------------------------------
DR9       -1.00 dB   -11.19 dB      2:54 01-Going Places
DR10      -1.00 dB   -12.48 dB      2:25 02-Love Is Just Around the Corner
DR11      -1.02 dB   -15.63 dB      3:55 03-Creole Love Call
DR10      -1.00 dB   -14.21 dB      4:37 04-Gone Away Blues
DR9       -1.00 dB   -11.90 dB      3:23 05-Viper Mad
DR12      -1.00 dB   -14.92 dB      3:34 06-Blueberry Hill
DR9       -1.00 dB   -11.63 dB      2:07 07-Big Noise from Winnetka
DR10      -1.37 dB   -14.96 dB      4:34 08-Blue Turning Grey over You
DR10      -1.00 dB   -12.90 dB      3:18 09-I've Got to Sing a Torch Song
DR9       -1.00 dB   -12.01 dB      3:33 10-Chicago
DR10      -1.00 dB   -13.18 dB      4:13 11-Indian Summer
DR10      -1.00 dB   -12.94 dB      3:28 12-Mandy, Make up Your Mind
DR9       -1.00 dB   -12.72 dB      3:10 13-Donegal Cradle Song
DR8       -1.00 dB   -11.27 dB      2:45 14-St. Louis Blues
DR9       -1.00 dB   -12.25 dB      3:47 15-On Treasure Island
DR10      -1.00 dB   -12.75 dB      2:37 16-You're a Heavenly Thing
DR11      -1.00 dB   -14.10 dB      4:09 17-Imagination
DR10      -1.00 dB   -12.69 dB      2:13 18-New Orleans Hop Scop Blues
DR9       -1.00 dB   -10.95 dB      3:44 19-Farewell Blues
DR9       -1.00 dB   -11.92 dB      2:23 20-Chinatown, My Chinatown
DR10      -1.00 dB   -13.11 dB      5:17 21-Blue Feeling
DR9       -1.00 dB   -12.15 dB      3:45 22-That's the Blues, Dad
DR8       -1.00 dB   -10.40 dB      3:17 23-Your Eyes
DR10      -1.00 dB   -12.60 dB      2:22 24-Stop, Look and Listen
DR9       -1.00 dB   -11.30 dB      4:13 25-Don't Get Around Much Anymore
DR11      -1.00 dB   -13.54 dB      3:58 26-Jumpin' at the Woodside
DR10      -1.00 dB   -12.05 dB      2:21 27-Roses of Picardy
--------------------------------------------------------------------------------

Number of tracks:  27
Official DR value: DR10

Samplerate:        44100 Hz
Channels:          2
Bits per sample:   24
Bitrate:           1432 kbps
Codec:             FLAC
================================================================================
Приватный:
Нет (DHT включён)
Размер:
906.77 Мб (950,822,048 байт) » файлов: 32
Участники:
0 раздают, 0 качают (0 участников всего)
Внешние участники:
3 раздают, 1 качают (4 участников всего) [ Обновить ]
No seeders - write personal message to M0p94ok. Any questions - support@pro-jazz.com.
Нет сидеров - пишите в личку M0p94ok. Есть вопросы - support@pro-jazz.com
23:50
251
Нет комментариев. Ваш будет первым!