Вы используете незарегистрированную версию компонента "Вкладки"!

Поиск

2020 Bjorn Marius Hegge Trio - On Green Dolphin Street {Particular} [24-96]

2020 Bjorn Marius Hegge Trio - On Green Dolphin Street {Particular} [24-96]
Стили:
Доп. инфо:

• Формат записи | Источник записи: [TR24][OF]
• Наличие водяных знаков: Нет
• Год издания релиза: 2020
• Лейбл: Particular Recordings Collective
• Продолжительность: 00:41:14
• Источник: internet
• WEB релиз: ссылка
• Контейнер: FLAC (*.flac)
• Тип рипа: tracks
• Разрядность: 24/96
• Формат: PCM
• Количество каналов: 2.0
• Наличие сканов: front

Лог проверки качества
foobar2000 1.4.2 / Dynamic Range Meter 1.1.1
log date: 2020-02-13 20:35:48

--------------------------------------------------------------------------------
Analyzed: Bjørn Marius Hegge Trio / On Green Dolphin Street
--------------------------------------------------------------------------------

DR         Peak         RMS     Duration Track
--------------------------------------------------------------------------------
DR13      -0.43 dB   -16.84 dB      4:10 01-On Green Dolphin Street
DR14       0.00 dB   -17.08 dB      4:52 02-Oleo
DR15      -0.71 dB   -20.27 dB      5:28 03-All Of Me
DR15      -0.31 dB   -19.64 dB      4:46 04-Out Of Nowhere
DR14       0.00 dB   -17.27 dB      6:30 05-Autumn Leaves
DR12      -0.09 dB   -14.17 dB      7:00 06-All The Things You Are
DR14       0.00 dB   -18.52 dB      8:29 07-You Must Believe In Spring
--------------------------------------------------------------------------------

Number of tracks:  7
Official DR value: DR14

Samplerate:        96000 Hz
Channels:          2
Bits per sample:   24
Bitrate:           2434 kbps
Codec:             FLAC
================================================================================
Any questions - support@pro-jazz.com. Есть вопросы - support@pro-jazz.com
15:28
247
Нет комментариев. Ваш будет первым!