Вы используете незарегистрированную версию компонента "Вкладки"!

Поиск

2020 Billy Childs - Acceptance {Mack Avenue} [24-96]

2020 Billy Childs - Acceptance {Mack Avenue} [24-96]
Стили:
Издатель (лейбл):
Битрейт аудио:
lossless
Доп. инфо:

Формат записи/Источник записи: [TR24][OF]
Наличие водяных знаков: Нет
Год издания: 2020
Продолжительность: 00:53:23
Наличие сканов в содержимом раздачи: Только обложка альбома
Контейнер: FLAC (*.flac)
Тип рипа: tracks
Разрядность: 24/96
Формат: PCM
Количество каналов: 2.0
Источник (релизер): highresaudio.com

Лог проверки качества
foobar2000 1.4.8 / Dynamic Range Meter 1.1.1
log date: 2020-08-29 09:31:32

--------------------------------------------------------------------------------
Analyzed: Billy Childs / Acceptance
--------------------------------------------------------------------------------

DR         Peak         RMS     Duration Track
--------------------------------------------------------------------------------
DR7       -0.80 dB   -10.38 dB      7:34 01-Dori
DR7       -0.80 dB   -12.01 dB      7:11 02-Acceptance
DR8       -0.80 dB   -10.51 dB      5:57 03-Leimert Park
DR7       -0.80 dB   -11.39 dB      6:01 04-Do You Know My Name?
DR12      -0.80 dB   -16.19 dB      5:12 05-It Never Entered My Mind
DR8       -0.80 dB   -11.57 dB      6:46 06-Quiet Girl
DR6       -0.80 dB    -9.15 dB      9:15 07-Twilight is Upon Us
DR11      -0.80 dB   -15.44 dB      5:29 08-Oceana
--------------------------------------------------------------------------------

Number of tracks:  8
Official DR value: DR8
Samplerate:        96000 Hz
Channels:          2
Bits per sample:   24
Bitrate:           2656 kbps
Codec:             FLAC
================================================================================
Any questions - support@pro-jazz.com. Есть вопросы - support@pro-jazz.com
11:33
242
Нет комментариев. Ваш будет первым!