Вы используете незарегистрированную версию компонента "Вкладки"!

Поиск

2020 Bertine Zetlitz & Bugge Wesseltoft - Closer {Starbox Cassette} [24-44,1]

2020 Bertine Zetlitz & Bugge Wesseltoft - Closer {Starbox Cassette} [24-44,1]
Стили:
Битрейт аудио:
lossless
Доп. инфо:

• Формат записи | Источник записи: [TR24][OF]
• Наличие водяных знаков: Нет
• Год издания релиза: 2020
• Лейбл: Starbox Cassette
• Продолжительность: 00:49:04
• Источник: internet
• WEB релиз: ссылка
• Контейнер: FLAC (*.flac)
• Тип рипа: tracks
• Разрядность: 24/44,1
• Формат: PCM
• Количество каналов: 2.0
• Наличие сканов: front

Лог проверки качества
foobar2000 1.4.2 / Замер динамического диапазона (DR) 1.1.1
Дата отчёта:  2020-03-19 12:44:03

--------------------------------------------------------------------------------
Анализ:   Bertine Zetlitz & Bugge Wesseltoft / Closer
--------------------------------------------------------------------------------

DR         Пики         RMS           Продолжительность трека
--------------------------------------------------------------------------------
DR11      -0.56 дБ   -14.14 дБ      3:19 01-Snow on a Hot Day
DR10      -0.56 дБ   -13.98 дБ      5:24 02-Girl Like You
DR11      -1.04 дБ   -16.27 дБ      4:14 03-Adore Me
DR13      -0.55 дБ   -17.12 дБ      5:08 04-Sett At Vi Sier Det Sann
DR10      -0.56 дБ   -14.82 дБ      3:16 05-Get What You Deserve
DR9       -0.55 дБ   -12.05 дБ      4:07 06-Fake Your Beauty
DR12      -0.84 дБ   -16.55 дБ      3:44 07-Abigail
DR12      -0.63 дБ   -15.26 дБ      3:38 08-Draggin Me Down
DR12      -1.05 дБ   -16.85 дБ      4:00 09-Apples n' Diamonds
DR12      -0.57 дБ   -17.48 дБ      3:26 10-Pa Kanten
DR10      -0.56 дБ   -13.69 дБ      4:26 11-Twisted Little Star
DR10      -0.56 дБ   -13.88 дБ      4:21 12-Fate
--------------------------------------------------------------------------------

Количество треков: 12
Реальные значения DR: DR11

Частота:   44100 Гц
Каналов:   2
Разрядность:   24
Битрейт:   1399 кбит/с
Кодек:   FLAC
================================================================================
Any questions - support@pro-jazz.com. Есть вопросы - support@pro-jazz.com
13:20
261
Нет комментариев. Ваш будет первым!