Вы используете незарегистрированную версию компонента "Вкладки"!

Поиск

2020 Avishai Cohen – Big Vicious {ECM 2680} [24-88,2]

2020 Avishai Cohen – Big Vicious {ECM 2680} [24-88,2]
Издатель (лейбл):
Номер по каталогу:
ECM 2680
Битрейт аудио:
lossless
Доп. инфо:

Формат записи/Источник записи: [TR24][OF]
Наличие водяных знаков: Нет
Год издания: 2020
Продолжительность: 00:50:29
Наличие сканов в содержимом раздачи: Буклет PDF
Источник: web
Контейнер: FLAC (*.flac)
Тип рипа: tracks
Разрядность: 24/88,2
Формат: PCM
Количество каналов: 2.0

Лог проверки качества
foobar2000 1.3.16 / Dynamic Range Meter 1.1.1
log date: 2020-03-27 07:32:12

––––––––––––––––––––––––––––––––––––––––
Analyzed: Avishai Cohen (tp) / Big Vicious (1)
None / Big Vicious (2-11)
––––––––––––––––––––––––––––––––––––––––

DR Peak RMS Duration Track
––––––––––––––––––––––––––––––––––––––––
DR10 -0.41 dB -14.25 dB 4:35 01-Honey Fountain
DR9 -0.42 dB -13.03 dB 4:42 02-Hidden Chamber
DR8 -0.38 dB -11.24 dB 4:10 03-King Kutner
DR11 -0.42 dB -14.60 dB 5:30 04-Moonlight Sonata
DR11 -0.41 dB -15.35 dB 3:33 05-Fractals
DR10 -0.40 dB -13.41 dB 7:25 06-Teardrop
DR10 -0.45 dB -14.93 dB 3:12 07-The Things You Tell Me
DR13 -0.45 dB -15.47 dB 3:20 08-This Time It’s Different
DR10 -0.38 dB -14.38 dB 6:04 09-Teno Neno
DR11 -0.40 dB -14.54 dB 3:55 10-The Cow & The Calf
DR11 -0.40 dB -15.28 dB 4:04 11-Intent
––––––––––––––––––––––––––––––––––––––––

Number of tracks: 11
Official DR value: DR10

Samplerate: 88200 Hz
Channels: 2
Bits per sample: 24
Bitrate: 2632 kbps
Codec: FLAC
================================================================================
Any questions - support@pro-jazz.com. Есть вопросы - support@pro-jazz.com
19:34
561
Нет комментариев. Ваш будет первым!