Поиск

2020 Andrea Castelfranato - Duende Live {Fone} [24-88.2]

2020 Andrea Castelfranato - Duende Live {Fone} [24-88.2]
Дата записи диска:
6 апреля 2019
Место записи:
Auditorium Museo Piaggio Pontedera
Дата издания диска:
4 августа 2020
Издатель (лейбл):
Носитель:
WEB
Формат:
PCM
Тип рипа:
tracks
Контейнер:
FLAC (*.flac)
Количество каналов:
2.0
Разрядность/ЧД:
24/88,2
Битрейт аудио:
lossless
Наличие сканов:
только обложка

01. Acquamarina (Live)  05:26
02. Frammenti di conchiglia (Live)  07:10
03. Trem das Onze (Live)  03:12
04. Appassionata (Live)  05:25
05. La prima cosa bella (Live)  03:50
06. Medley: africa / Billie jean / Staying alive / Can't take my eyes off you / O' sole mio (Live)  07:17
07. Timeless (Live)  04:21
08. Selam (Live)  05:39
09. Solitude (Live)  02:49
10. Kiitos (Live)  03:43
11. Louisiana Blues (Live)  02:18
12. The Pink Panther (Live)  02:24

Состав:
  •     Acoustic Guitar, Guitar – Andrea Castelfranato
  •     Concept By, Producer, Recorded By – Giulio Cesare Ricci
Лог проверки качества
foobar2000 1.6.10 / Dynamic Range Meter 1.1.1
log date: 2022-09-18 10:39:23

--------------------------------------------------------------------------------
Analyzed: Andrea Castelfranato / Duende live
--------------------------------------------------------------------------------

DR         Peak         RMS     Duration Track
--------------------------------------------------------------------------------
DR14      -1.10 dB   -20.45 dB      5:26 01-Acquamarina 
DR14      -2.59 dB   -18.74 dB      7:10 02-Frammenti di conchiglia
DR15      -1.97 dB   -19.71 dB      3:13 03-Trem das onze
DR12      -0.94 dB   -16.39 dB      5:26 04-Appassionata
DR12      -4.21 dB   -19.91 dB      3:51 05-La prima cosa bella
DR14      -1.10 dB   -19.41 dB      7:18 06-Medley: Africa / Billie Jean / Staying Alive / Can’t take my eyes off you / O’ Sole mio
DR10      -2.36 dB   -15.76 dB      4:22 07-Timeless
DR12      -4.89 dB   -20.67 dB      5:39 08-Selam
DR12      -4.80 dB   -19.39 dB      2:49 09-Solitude
DR12      -6.62 dB   -21.74 dB      3:43 10-Kiitos
DR14      -3.17 dB   -19.45 dB      2:19 11-Louisiana Blues
DR13      -5.33 dB   -23.24 dB      2:24 12-The Pink Panther
--------------------------------------------------------------------------------

Number of tracks:  12
Official DR value: DR13

Samplerate:        88200 Hz
Channels:          2
Bits per sample:   24
Bitrate:           2647 kbps
Codec:             FLAC
================================================================================
Приватный:
Нет (DHT включён)
Размер:
1.03 Гб (1,104,566,552 байт) » файлов: 15
Участники:
0 раздают, 0 качают (0 участников всего)
Внешние участники:
--- [ Обновить ]
10:59
566
Нет комментариев. Ваш будет первым!