Вы используете незарегистрированную версию компонента "Вкладки"!

Поиск

2020 Andre Canniere - Ghost Days {Whirlwind} [24-48]

2020 Andre Canniere - Ghost Days {Whirlwind} [24-48]
Дата записи диска:
декабрь 2018
Место записи:
Wincraft Studios, Gloustershire, UK
Дата издания диска:
4 февраля 2020
Номер по каталогу:
WR 4753
Доп. инфо:

• Формат записи | Источник записи: [TR24][OF]
• Наличие водяных знаков: Нет
• Год издания релиза: 2020
• Лейбл: Whirlwind Recordings
• Продолжительность: 00:41:10
• Источник: internet
• WEB релиз: ссылка
• Контейнер: FLAC (*.flac)
• Тип рипа: tracks
• Разрядность: 24/48
• Формат: PCM
• Количество каналов: 2.0
• Наличие сканов: Digital booklet

Лог проверки качества
foobar2000 1.3.9 / Замер динамического диапазона (DR) 1.1.1
Дата отчёта:  2020-02-14 08:02:26

--------------------------------------------------------------------------------
Анализ:   Andre Canniere / Ghost Days
--------------------------------------------------------------------------------

DR         Пики         RMS           Продолжительность трека
--------------------------------------------------------------------------------
DR9       -0.31 дБ   -11.29 дБ      5:55 01-Suicides
DR8       -0.31 дБ   -10.03 дБ      5:32 02-Colours
DR8       -0.31 дБ   -11.63 дБ      7:06 03-Erasure
DR11      -0.31 дБ   -14.75 дБ      5:37 04-My Star
DR9       -0.31 дБ   -12.93 дБ      6:33 05-Arrival
DR8       -0.31 дБ   -10.91 дБ      6:18 06-One More Down
DR11      -0.31 дБ   -14.28 дБ      4:08 07-Endure
--------------------------------------------------------------------------------

Количество треков: 7
Реальные значения DR: DR9

Частота:   48000 Гц
Каналов:   2
Разрядность:   24
Битрейт:   1444 кбит/с
Кодек:   FLAC
================================================================================
Any questions - support@pro-jazz.com. Есть вопросы - support@pro-jazz.com
16:16
257
Нет комментариев. Ваш будет первым!