Вы используете незарегистрированную версию компонента "Вкладки"!

Поиск

2020 Ana Carla Maza - La Flor {Persona Editorial} [24-96]

2020 Ana Carla Maza - La Flor {Persona Editorial} [24-96]
Битрейт аудио:
lossless
Доп. инфо:

Формат записи/Источник записи: [TR24][OF]
Наличие водяных знаков: Нет
Год издания/переиздания диска: 2020
Издатель (лейбл): Persona Editorial
Продолжительность: 00:31:52
Наличие сканов в содержимом раздачи: Только обложка альбома
Источник (релизер): qobuz

Контейнер: FLAC (*.flac)
Тип рипа: tracks
Разрядность: 24/96
Формат: PCM
Количество каналов: 2.0

Лог проверки качества
foobar2000 1.1.15 / Dynamic Range Meter 1.1.1
log date: 2020-07-17 12:30:28

--------------------------------------------------------------------------------
Analyzed: Ana Carla Maza / La Flor
--------------------------------------------------------------------------------

DR         Peak         RMS     Duration Track
--------------------------------------------------------------------------------
DR10      -1.11 dB   -13.74 dB      3:44 01-A Contratiempo
DR9       -1.10 dB   -14.31 dB      4:25 02-Con Amor y Poesia
DR9       -1.10 dB   -14.41 dB      4:00 03-La Flor
DR9       -1.10 dB   -14.89 dB      3:31 04-Juntos
DR9       -0.80 dB   -14.32 dB      3:25 05-Dudas
DR9       -1.10 dB   -14.05 dB      2:56 06-Quiero
DR8       -1.11 dB   -14.43 dB      4:00 07-Habanera
DR10      -1.10 dB   -13.52 dB      2:49 08-Te Esperé
DR11      -1.10 dB   -14.04 dB      3:01 09-Te Me Fuiste
--------------------------------------------------------------------------------

Number of tracks:  9
Official DR value: DR9

Samplerate:        96000 Hz
Channels:          2
Bits per sample:   24
Bitrate:           2248 kbps
Codec:             FLAC
================================================================================
Any questions - support@pro-jazz.com. Есть вопросы - support@pro-jazz.com
11:58
289
Нет комментариев. Ваш будет первым!