Вы используете незарегистрированную версию компонента "Вкладки"!

Поиск

2020 Alexia Bomtempo - Suspiro {Ropeadope} [24-88,2]

2020 Alexia Bomtempo - Suspiro {Ropeadope} [24-88,2]
Стили:
Издатель (лейбл):
Битрейт аудио:
lossless
Доп. инфо:

Формат записи/Источник записи: [TR24][OF]
Наличие водяных знаков: Нет
Год издания/переиздания диска: 2020
Продолжительность: 00:40:18
Наличие сканов в содержимом раздачи: Нет

Контейнер: FLAC (*.flac)
Тип рипа: tracks
Разрядность: 24/88,2
Формат: PCM
Количество каналов: 2.0

Источник (релизер): https://alexiabomtempo.bandcamp.com/album/suspiro

Лог проверки качества
foobar2000 1.4.5 / Замер динамического диапазона (DR) 1.1.1
Дата отчёта:  2020-05-06 11:34:04

--------------------------------------------------------------------------------
Анализ:   Alexia Bomtempo / Suspiro
--------------------------------------------------------------------------------

DR         Пики         RMS           Продолжительность трека
--------------------------------------------------------------------------------
DR9       -0.30 дБ   -10.46 дБ      3:02 01-I'm in Love Again
DR10      -0.30 дБ   -11.42 дБ      3:05 02-Grão
DR9       -0.30 дБ   -10.48 дБ      3:54 03-Even Now
DR10      -0.30 дБ   -11.96 дБ      2:42 04-Suspiro
DR8       -0.30 дБ    -9.23 дБ      2:54 05-Eles Querem Amar
DR8       -0.30 дБ    -9.66 дБ      3:29 06-Mais Devagar
DR8       -0.30 дБ    -9.83 дБ      3:33 07-涙の河
DR9       -0.30 дБ   -10.62 дБ      3:15 08-Serpente
DR10      -0.30 дБ   -12.85 дБ      4:07 09-Fim de Sonho
DR11      -0.43 дБ   -13.50 дБ      3:35 10-Les Chansons d'Amour
DR9       -0.50 дБ   -10.15 дБ      3:11 11-Evergreen
DR8       -0.30 дБ    -9.72 дБ      3:31 12-Floating Away
--------------------------------------------------------------------------------

Количество треков: 12
Реальные значения DR: DR9

Частота:   88200 Гц
Каналов:   2
Разрядность:   24
Битрейт:   2948 кбит/с
Кодек:   FLAC
================================================================================
Any questions - support@pro-jazz.com. Есть вопросы - support@pro-jazz.com
14:49
287
Нет комментариев. Ваш будет первым!