Вы используете незарегистрированную версию компонента "Вкладки"!

Поиск

2019 Wolfgang Schlüter - For You {Skip SKP9144} [24-44,1]

2019 Wolfgang Schlüter - For You {Skip SKP9144} [24-44,1]
Стили:
Номер по каталогу:
Skip SKP9144
Носитель:
WEB
Формат:
PCM
Тип рипа:
tracks+.cue
Контейнер:
FLAC (*.flac)
Количество каналов:
2.0
Разрядность/ЧД:
24/44,1
Битрейт аудио:
lossless
Время звучания:
01:15:09
Наличие сканов:
web
Страна-производитель диска (релиза):
Germany
Релизёр (источник):
M0p94ok
Лог проверки качества
foobar2000 1.5.5 / Dynamic Range Meter 1.1.1
log date: 2020-10-04 15:09:20

--------------------------------------------------------------------------------
Analyzed: Wolfgang Schlüter / For You
--------------------------------------------------------------------------------

DR         Peak         RMS     Duration Track
--------------------------------------------------------------------------------
DR11      -0.30 dB   -15.00 dB      8:51 01-Nothing but Rain
DR9       -0.30 dB   -12.40 dB      8:35 02-Recuerdos de Pollença
DR10      -0.30 dB   -13.02 dB      5:31 03-Tribute to Birdland
DR10      -0.30 dB   -12.35 dB      5:54 04-Wind in Your Hair
DR11      -0.30 dB   -15.31 dB      9:00 05-The Incredible Athmosphere of Andrew Hills Music
DR10      -0.30 dB   -12.06 dB      6:28 06-Three Days on the Percussion Road
DR12      -0.30 dB   -16.94 dB      7:59 07-Sun Up
DR11      -0.30 dB   -14.72 dB      5:32 08-Song for Peer Alban
DR11      -0.30 dB   -14.97 dB      6:19 09-Ballade für eine Silberhochzeit
DR10      -0.89 dB   -13.51 dB      5:22 10-Swinging Hamburg
DR13      -0.30 dB   -16.34 dB      5:46 11-Requiem
--------------------------------------------------------------------------------

Number of tracks:  11
Official DR value: DR11

Samplerate:        44100 Hz
Channels:          2
Bits per sample:   24
Bitrate:           1288 kbps
Codec:             FLAC
================================================================================
Any questions - support@pro-jazz.com. Есть вопросы - support@pro-jazz.com
15:24
220
Нет комментариев. Ваш будет первым!