Вы используете незарегистрированную версию компонента "Вкладки"!

Поиск

2019 Wallace Roney - Blue Dawn - Blue Nights {HighNote} [24-44,1]

2019 Wallace Roney - Blue Dawn - Blue Nights {HighNote} [24-44,1]
Стили:
Издатель (лейбл):
Доп. инфо:

Формат записи/Источник записи: [TR24][OF]
Наличие водяных знаков: Нет
Год издания/переиздания диска: 2019
Жанр: Jazz
Издатель (лейбл): HighNote Records
Продолжительность: 53:28
Наличие сканов в содержимом раздачи: Буклет PDF
Источник (релизер): Qobuz

Контейнер: FLAC (*.flac)
Тип рипа: tracks
Разрядность: 24/44,1
Формат: PCM
Количество каналов: 2.0

Лог проверки качества
foobar2000 1.3.16 / Dynamic Range Meter 1.1.1
log date: 2019-08-30 08:58:20

--------------------------------------------------------------------------------
Analyzed: Wallace Roney / Blue Dawn - Blue Nights
--------------------------------------------------------------------------------

DR         Peak         RMS     Duration Track
--------------------------------------------------------------------------------
DR9       -0.68 dB   -11.30 dB      6:13 01-Bookendz
DR13      -0.68 dB   -17.49 dB      5:29 02-Why Should There Be Stars
DR10      -0.68 dB   -12.71 dB      7:54 03-Wolfbane
DR11      -0.68 dB   -13.18 dB      8:14 04-New Breed
DR10      -0.68 dB   -13.36 dB      7:05 05-Don't Stop Me Now
DR12      -0.68 dB   -15.72 dB      9:01 06-In a Dark Room
DR9       -0.68 dB   -11.65 dB      5:15 07-Venus Rising
DR11      -0.68 dB   -13.29 dB      4:16 08-Elliptical
--------------------------------------------------------------------------------

Number of tracks:  8
Official DR value: DR11

Samplerate:        44100 Hz
Channels:          2
Bits per sample:   24
Bitrate:           1669 kbps
Codec:             FLAC
================================================================================
Any questions - support@pro-jazz.com. Есть вопросы - support@pro-jazz.com
18:44
371
Нет комментариев. Ваш будет первым!