Поиск

2019 Vladimir Shafranov Trio - The Way You Look Tonight {Venus VHGD-349} [DSD64 ISO]

2019 Vladimir Shafranov Trio - The Way You Look Tonight {Venus VHGD-349} [DSD64 ISO]
Дата записи диска:
11 апреля - 12 апреля 2019
Место записи:
Van Gelder Recording Studio, Englewood Cliffs, New Jersey, USA
Дата издания диска:
18 сентября 2019
Издатель (лейбл):
Номер по каталогу:
VHGD-349
Носитель:
SACD
Формат:
DSD
Тип рипа:
image
Контейнер:
ISO (*.iso)
Количество каналов:
2.0
Разрядность/ЧД:
64 (2,8 MHz/1 Bit)
Битрейт аудио:
lossless
Время звучания:
01:08:59
Наличие сканов:
только обложка

01. With Malice Towards None
02. Maybe September
03. Beyond The Bluebird
04. Angel Eyes
05. The Way You Look Tonight
06. Darn That Dream
07. Mean What You Say
08. They Say It’s Spring
09. Relaxin’ At Camarillo
10. Eclypso
11. Smooth As The Wind
12. Cup Bearers
13. Glad To Be Unhappy

Состав:
  • Vladimir Shafranov – piano
  • Peter Washington – bass
  • Kenny Washington – drums
Лог проверки качества
foobar2000 1.6.4 / Dynamic Range Meter 1.1.1
log date: 2021-07-10 18:26:34

--------------------------------------------------------------------------------
Analyzed: VLADIMIR SHAFRANOV TRIO / The Way You Look Tonight
--------------------------------------------------------------------------------

DR         Peak         RMS     Duration Track
--------------------------------------------------------------------------------
DR6       -5.29 dB   -14.20 dB      6:37 01-With Malice Towards None
DR6       -4.44 dB   -13.20 dB      4:14 02-Maybe September
DR6       -5.37 dB   -13.69 dB      5:01 03-Beyond The BlueBird
DR7       -5.49 dB   -15.01 dB      7:03 04-Angel Eyes
DR5       -5.21 dB   -12.68 dB      5:32 05-The Way You Look Tonight
DR6       -5.31 dB   -14.26 dB      6:54 06-Darn That Dream
DR6       -5.24 dB   -13.90 dB      6:37 07-Mean What You Say
DR6       -5.28 dB   -13.03 dB      4:34 08-They Say It's Spring
DR6       -5.21 dB   -12.66 dB      2:21 09-Relaxin' At Camarillo
DR6       -4.81 dB   -13.75 dB      6:11 10-Eclypso
DR6       -5.23 dB   -13.13 dB      6:21 11-Smooth As The Wind
DR5       -5.54 dB   -11.97 dB      3:20 12-Cup Bearers
DR7       -6.22 dB   -16.49 dB      4:15 13-Glad To Be Unhappy
--------------------------------------------------------------------------------

Number of tracks:  13
Official DR value: DR6

Samplerate:        2822400 Hz / PCM Samplerate: 88200 Hz
Channels:          2
Bits per sample:   1
Bitrate:           5645 kbps
Codec:             DSD64
================================================================================
Приватный:
Нет (DHT включён)
Размер:
2.78 Гб (2,980,621,416 байт) » файлов: 4
Участники:
0 раздают, 0 качают (0 участников всего)
Внешние участники:
9 раздают, 3 качают (12 участников всего) [ Обновить ]
21:29
585
Нет комментариев. Ваш будет первым!