Вы используете незарегистрированную версию компонента "Вкладки"!

Поиск

2019 VA - The Bossa Nova - Seductive Jazz Samba Rhythms! {RevOla} [24-44,1]

2019 VA - The Bossa Nova - Seductive Jazz Samba Rhythms! {RevOla} [24-44,1]
Издатель (лейбл):
Носитель:
WEB
Тип рипа:
tracks+.cue
Аудиокодек:
FLAC (*.flac)
Битрейт аудио:
lossless
Время звучания:
00:57:31
Наличие сканов:
web
Страна-производитель диска (релиза):
USA
Релизёр (источник):
M0p94ok
Лог проверки качества
foobar2000 1.3.16 / Dynamic Range Meter 1.1.1
log date: 2019-01-22 13:52:28

--------------------------------------------------------------------------------
Analyzed: Antonio Carlos Jobim & Eumir Deodato / The Bossa Nova: Seductive Jazz Samba Rhythms! (1)
          Bobby Mackay / The Bossa Nova: Seductive Jazz Samba Rhythms! (2)
          Coral De Ouro Preto / The Bossa Nova: Seductive Jazz Samba Rhythms! (3)
          Ed Lincoln / The Bossa Nova: Seductive Jazz Samba Rhythms! (4)
          Edison Machado / The Bossa Nova: Seductive Jazz Samba Rhythms! (5)
          Edu Lobo / The Bossa Nova: Seductive Jazz Samba Rhythms! (6)
          Elis Regina / The Bossa Nova: Seductive Jazz Samba Rhythms! (7)
          Ella Fitzgerald / The Bossa Nova: Seductive Jazz Samba Rhythms! (8)
          Joao Gilberto And Antonio Carlos Jobim / The Bossa Nova: Seductive Jazz Samba Rhythms! (9)
          João Roberto Kelly & Luiz Reis / The Bossa Nova: Seductive Jazz Samba Rhythms! (10)
          Jorge Ben / The Bossa Nova: Seductive Jazz Samba Rhythms! (11)
          Marcos Valle / The Bossa Nova: Seductive Jazz Samba Rhythms! (12)
          Os Farroupilhas / The Bossa Nova: Seductive Jazz Samba Rhythms! (13)
          Paul Winter feat. Luiz Bonfa, Roberto Menescal & Luiz Eca / The Bossa Nova: Seductive Jazz Samba Rhythms! (14)
          Pedrinho Mattar & Seu Conjunto / The Bossa Nova: Seductive Jazz Samba Rhythms! (15)
          Pery Ribeiro feat. Walter Wanderley & Seu Conjunto / The Bossa Nova: Seductive Jazz Samba Rhythms! (16)
          Sambalanço Trio / The Bossa Nova: Seductive Jazz Samba Rhythms! (17)
          Sarah Vaughan / The Bossa Nova: Seductive Jazz Samba Rhythms! (18)
          Sergio Mendes / The Bossa Nova: Seductive Jazz Samba Rhythms! (19)
          Tamba Trio / The Bossa Nova: Seductive Jazz Samba Rhythms! (20)
          Toots Thieleman & Elis Regina / The Bossa Nova: Seductive Jazz Samba Rhythms! (21)
          Walter Wanderley / The Bossa Nova: Seductive Jazz Samba Rhythms! (22)
--------------------------------------------------------------------------------

DR         Peak         RMS     Duration Track
--------------------------------------------------------------------------------
DR13      -3.55 dB   -20.41 dB      2:25 21-Corteguay (Remastered)
DR12      -4.17 dB   -22.10 dB      1:52 05-Bossa Nova (I Say) (Remastered)
DR10      -5.54 dB   -18.08 dB      2:06 04-Samba De Uma Nota So (Remastered)
DR12      -6.40 dB   -20.70 dB      3:59 15-The Blues Walk (Remastered)
DR13      -2.37 dB   -17.11 dB      2:46 19-Menino Travesso (Remastered)
DR14      -5.02 dB   -21.59 dB      2:19 02-Upa, Neguinho (Remastered)
DR14      -6.04 dB   -23.51 dB      2:16 08-O Meninho Das Laranjas (Remastered)
DR11      -6.64 dB   -22.06 dB      5:49 09-So Danco Samba (Remastered)
DR11      -8.22 dB   -22.84 dB      1:58 11-Desafinado (Remastered)
DR12      -9.34 dB   -24.59 dB      2:31 17-Leilão/Brotinho Bossa Nova (Remastered)
DR13      -4.44 dB   -20.84 dB      2:20 06-Tim Dom Dom (Remastered)
DR12      -4.80 dB   -19.78 dB      2:06 13-Os Grilos (Remastered)
DR13      -8.86 dB   -24.74 dB      1:56 12-Samba International (Remastered)
DR11      -3.82 dB   -17.63 dB      3:19 20-Reza (Remastered)
DR13      -4.65 dB   -21.09 dB      1:53 16-O Pato (Remastered)
DR11      -8.69 dB   -22.81 dB      2:55 03-O Barquinho (Remastered)
DR13      -1.11 dB   -17.09 dB      2:16 18-Samblues (Remastered)
DR11      -7.42 dB   -21.71 dB      2:28 10-The Boy From Ipanema (Remastered)
DR12      -2.25 dB   -16.21 dB      2:28 22-Oba - La - La (Remastered)
DR14      -1.56 dB   -20.20 dB      2:34 01-Mas Que Nada (Remastered)
DR12      -5.22 dB   -20.58 dB      3:08 07-Wave (Remastered)
DR11      -2.84 dB   -17.56 dB      2:15 14-Telefone (Remastered)
--------------------------------------------------------------------------------

Number of tracks:  22
Official DR value: DR12

Samplerate:        44100 Hz
Channels:          2
Bits per sample:   24
Bitrate:           1569 kbps
Codec:             FLAC
================================================================================
Any questions - support@pro-jazz.com. Есть вопросы - support@pro-jazz.com
12:54
214
Нет комментариев. Ваш будет первым!