Поиск

2019 UZEB - R3union Live {Norac NORCD-2514} [CD]

2019 UZEB - R3union Live {Norac NORCD-2514} [CD]
Доп. инфо:
Лог создания рипа
Exact Audio Copy V1.1 from 23. June 2015
EAC extraction logfile from 26. April 2019, 17:29
UZEB / R3union Live
Used drive : HL-DT-STDVDRAM GP50NB40 Adapter: 1 ID: 1
Read mode : Secure
Utilize accurate stream : Yes
Defeat audio cache : Yes
Make use of C2 pointers : No
Read offset correction : 6
Overread into Lead-In and Lead-Out : No
Fill up missing offset samples with silence : Yes
Delete leading and trailing silent blocks : No
Null samples used in CRC calculations : Yes
Used interface : Native Win32 interface for Win NT & 2000
Gap handling : Appended to previous track
Used output format : User Defined Encoder
Selected bitrate : 896 kBit/s
Quality : High
Add ID3 tag : No
Command line compressor : C:\Program Files (x86)\Exact Audio Copy\Flac\flac.exe
Additional command line options : -8 -V -T "ARTIST=%artist%" -T "TITLE=%title%" -T "ALBUM=%albumtitle%" -T "DATE=%year%" -T "TRACKNUMBER=%tracknr%" -T "GENRE=%genre%" -T "PERFORMER=%albuminterpret%" -T "COMPOSER=%composer%" %haslyrics%--tag-from-file=LYRICS="%lyricsfile%"%haslyrics% -T "ALBUMARTIST=%albumartist%" -T "DISCNUMBER=%cdnumber%" -T "TOTALDISCS=%totalcds%" -T "TOTALTRACKS=%numtracks%" -T "COMMENT=%comment%" %source% -o %dest%
TOC of the extracted CD
Track | Start | Length | Start sector | End sector
---------------------------------------------------------
1 | 0:00.00 | 10:27.40 | 0 | 47064
2 | 10:27.40 | 6:52.69 | 47065 | 78033
3 | 17:20.34 | 7:37.13 | 78034 | 112321
4 | 24:57.47 | 9:28.19 | 112322 | 154940
5 | 34:25.66 | 7:05.43 | 154941 | 186858
6 | 41:31.34 | 8:19.43 | 186859 | 224326
7 | 49:51.02 | 13:20.59 | 224327 | 284385
8 | 63:11.61 | 7:44.70 | 284386 | 319255
9 | 70:56.56 | 3:26.15 | 319256 | 334720
Track 1
Filename C:\EAC Rips\UZEB - R3union Live (2019) [FLAC]\01 - Loose.wav
Pre-gap length 0:00:02.00
Peak level 92.7 %
Extraction speed 1.4 X
Track quality 100.0 %
Test CRC A7E399A4
Copy CRC A7E399A4
Track not present in AccurateRip database
Copy OK
Track 2
Filename C:\EAC Rips\UZEB - R3union Live (2019) [FLAC]\02 - Cool It.wav
Peak level 92.7 %
Extraction speed 1.6 X
Track quality 100.0 %
Test CRC A50247E1
Copy CRC A50247E1
Track not present in AccurateRip database
Copy OK
Track 3
Filename C:\EAC Rips\UZEB - R3union Live (2019) [FLAC]\03 - Junk Funk.wav
Peak level 92.7 %
Extraction speed 1.7 X
Track quality 99.9 %
Test CRC 91EBAE64
Copy CRC 91EBAE64
Track not present in AccurateRip database
Copy OK
Track 4
Filename C:\EAC Rips\UZEB - R3union Live (2019) [FLAC]\04 - Slinky.wav
Peak level 92.7 %
Extraction speed 2.0 X
Track quality 100.0 %
Test CRC 02A96110
Copy CRC 02A96110
Track not present in AccurateRip database
Copy OK
Track 5
Filename C:\EAC Rips\UZEB - R3union Live (2019) [FLAC]\05 - Goodbye Pork Pie Hat.wav
Peak level 92.7 %
Extraction speed 2.0 X
Track quality 99.9 %
Test CRC F2714B0A
Copy CRC F2714B0A
Track not present in AccurateRip database
Copy OK
Track 6
Filename C:\EAC Rips\UZEB - R3union Live (2019) [FLAC]\06 - Perrier Citron.wav
Peak level 92.7 %
Extraction speed 2.3 X
Track quality 100.0 %
Test CRC 4D9887BA
Copy CRC 4D9887BA
Track not present in AccurateRip database
Copy OK
Track 7
Filename C:\EAC Rips\UZEB - R3union Live (2019) [FLAC]\07 - R3union Suite (Mr Bill , Wake Up Call , Funkaleon).wav
Peak level 92.7 %
Extraction speed 2.5 X
Track quality 99.9 %
Test CRC 70469A8C
Copy CRC 70469A8C
Track not present in AccurateRip database
Copy OK
Track 8
Filename C:\EAC Rips\UZEB - R3union Live (2019) [FLAC]\08 - 60, rue des Lombards.wav
Peak level 92.7 %
Extraction speed 2.7 X
Track quality 100.0 %
Test CRC 23EE16B0
Copy CRC 23EE16B0
Track not present in AccurateRip database
Copy OK
Track 9
Filename C:\EAC Rips\UZEB - R3union Live (2019) [FLAC]\09 - Brass Licks.wav
Peak level 92.7 %
Extraction speed 2.2 X
Track quality 99.9 %
Test CRC D04F1E18
Copy CRC D04F1E18
Track not present in AccurateRip database
Copy OK
None of the tracks are present in the AccurateRip database
No errors occurred
End of status report
---- CUETools DB Plugin V2.1.6
[CTDB TOCID: BoWdQcX7K88oNXPlrtb7289.IEM-] disk not present in database
Submit result: BoWdQcX7K88oNXPlrtb7289.IEM- has been uploaded
==== Log checksum B8344E1A63010395B120F17C1306F110F8FD2B87C1F477DA12687165AB1442F3 ====
Содержание индексной карты (.CUE)
REM GENRE jazz
REM DATE 2019
REM DISCID 92116E09
REM COMMENT "ExactAudioCopy v1.1"
CATALOG 0619061251421
PERFORMER "UZEB"
TITLE "R3union Live"
FILE "01 - Loose.wav" WAVE
TRACK 01 AUDIO
TITLE "Loose"
PERFORMER "UZEB"
ISRC CANA41800001
FLAGS DCP
INDEX 01 00:00:00
FILE "02 - Cool It.wav" WAVE
TRACK 02 AUDIO
TITLE "Cool It"
PERFORMER "UZEB"
ISRC CANA41800002
FLAGS DCP
INDEX 01 00:00:00
FILE "03 - Junk Funk.wav" WAVE
TRACK 03 AUDIO
TITLE "Junk Funk"
PERFORMER "UZEB"
ISRC CANA41800003
FLAGS DCP
INDEX 01 00:00:00
FILE "04 - Slinky.wav" WAVE
TRACK 04 AUDIO
TITLE "Slinky"
PERFORMER "UZEB"
ISRC CANA41800004
FLAGS DCP
INDEX 01 00:00:00
FILE "05 - Goodbye Pork Pie Hat.wav" WAVE
TRACK 05 AUDIO
TITLE "Goodbye Pork Pie Hat"
PERFORMER "UZEB"
ISRC CANA41800005
FLAGS DCP
INDEX 01 00:00:00
FILE "06 - Perrier Citron.wav" WAVE
TRACK 06 AUDIO
TITLE "Perrier Citron"
PERFORMER "UZEB"
ISRC CANA41800006
FLAGS DCP
INDEX 01 00:00:00
FILE "07 - R3union Suite (Mr Bill , Wake Up Call , Funkaleon).wav" WAVE
TRACK 07 AUDIO
TITLE "R3union Suite (Mr Bill / Wake Up Call / Funkaleon)"
PERFORMER "UZEB"
ISRC CANA41800007
FLAGS DCP
INDEX 01 00:00:00
FILE "08 - 60, rue des Lombards.wav" WAVE
TRACK 08 AUDIO
TITLE "60, rue des Lombards"
PERFORMER "UZEB"
ISRC CANA41800008
FLAGS DCP
INDEX 01 00:00:00
FILE "09 - Brass Licks.wav" WAVE
TRACK 09 AUDIO
TITLE "Brass Licks"
PERFORMER "UZEB"
ISRC CANA41800009
FLAGS DCP
INDEX 01 00:00:00
No seeders - write personal message to M0p94ok. Any questions - support@pro-jazz.com.
Нет сидеров - пишите в личку M0p94ok. Есть вопросы - support@pro-jazz.com
03:00
123
Нет комментариев. Ваш будет первым!