Вы используете незарегистрированную версию компонента "Вкладки"!

Поиск

2019 Uriel Herman - Face to Face {Laborie Jazz 55} [24-88,2]

2019 Uriel Herman - Face to Face {Laborie Jazz  55} [24-88,2]
Стили:
Носитель:
WEB
Формат:
PCM
Тип рипа:
tracks+.cue
Количество каналов:
2.0
Разрядность/ЧД:
24/88,2
Битрейт аудио:
lossless
Время звучания:
00:55:23
Наличие сканов:
да
Страна-производитель диска (релиза):
Israel
Релизёр (источник):
M0p94ok
Лог проверки качества
foobar2000 1.3.16 / Dynamic Range Meter 1.1.1
log date: 2019-01-25 14:10:04

--------------------------------------------------------------------------------
Analyzed: Uriel Herman / Face to Face
--------------------------------------------------------------------------------

DR         Peak         RMS     Duration Track
--------------------------------------------------------------------------------
DR10      -0.13 dB   -14.20 dB      9:43 01-Hayu leylot
DR9       -0.03 dB   -12.18 dB      6:27 02-The man who sold the world
DR10      -0.17 dB   -14.21 dB      3:10 03-Ballad for Yael
DR10      -0.16 dB   -12.05 dB      5:42 04-Shva Esre
DR9       -0.07 dB   -13.92 dB      6:44 05-I shall not die, but live
DR10      -0.27 dB   -13.50 dB      8:45 06-Winter light
DR8       -0.04 dB   -11.28 dB      9:32 07-Hour of the wolf
DR6       -0.05 dB    -8.96 dB      5:20 08-Shirat hachalil
--------------------------------------------------------------------------------

Number of tracks:  8
Official DR value: DR9

Samplerate:        88200 Hz
Channels:          2
Bits per sample:   24
Bitrate:           2693 kbps
Codec:             FLAC
================================================================================
Any questions - support@pro-jazz.com. Есть вопросы - support@pro-jazz.com
19:20
201
Нет комментариев. Ваш будет первым!