Вы используете незарегистрированную версию компонента "Вкладки"!

Поиск

2019 Triozean - Studio Konzert for Headphones {Neuklang} [24-96]

2019 Triozean - Studio Konzert for Headphones {Neuklang} [24-96]
Издатель (лейбл):
Битрейт аудио:
lossless
Доп. инфо:

Формат записи/Источник записи: [TR24][OF]
Наличие водяных знаков: Нет
Год издания/переиздания диска: 2019
Жанр: Post-Bop, Contemporary Jazz, Vocal Jazz
Издатель (лейбл): Neuklang
Продолжительность: 00:23:01
Наличие сканов в содержимом раздачи: Только обложка альбома

Контейнер: FLAC (*.flac)
Тип рипа: tracks
Разрядность: 24/96
Формат: PCM
Количество каналов: 2.0

Источник (релизер): redacted <-- qobuz

Лог проверки качества
foobar2000 1.5.4 / Dynamic Range Meter 1.1.1
log date: 2020-06-29 15:08:10

--------------------------------------------------------------------------------
Analyzed: Triozean / Studio Konzert for Headphones
--------------------------------------------------------------------------------

DR         Peak         RMS     Duration Track
--------------------------------------------------------------------------------
DR10      -1.46 dB   -15.27 dB      4:56 01-Moi Sad
DR13      -2.72 dB   -19.80 dB      3:20 02-Transsibirische Eisenbahn
DR11      -1.66 dB   -16.25 dB     11:55 03-Polar
DR14      -6.52 dB   -23.47 dB      2:50 04-Natschat Istoriju
--------------------------------------------------------------------------------

Number of tracks:  4
Official DR value: DR12

Samplerate:        96000 Hz
Channels:          2
Bits per sample:   24
Bitrate:           2370 kbps
Codec:             FLAC
================================================================================
Any questions - support@pro-jazz.com. Есть вопросы - support@pro-jazz.com
14:45
269
Нет комментариев. Ваш будет первым!